<?xml version="1.0" standalone="no"?>
<!DOCTYPE svg PUBLIC "-//W3C//DTD SVG 1.1//EN" "http://www.w3.org/Graphics/SVG/1.1/DTD/svg11.dtd" >
<svg xmlns="http://www.w3.org/2000/svg" xmlns:xlink="http://www.w3.org/1999/xlink" version="1.1">
<metadata>
Created by FontForge 20170924 at Fri Apr 17 04:01:46 2020
 By www-data
[Kosugi Maru]
      Copyright(c)2010 MOTOYA CO.,LTD.            

      [Varela Round]
      Copyright 2011-2016 The Varela Round Project Authors (https://github.com/alefalefalef/Varela-Round-Hebrew/), with Reserved Font Names 'Varela' and 'Varela Round'.            

      [jf open huninn]
      2020(c)The jf open huninn font is redistributed by justfont CO.,LTD, with Reserved Font Names 'open huninn' and 'huninn'. under SIL Open Font License. The Hanzi part of this project was derived from Kosugi Maru under Apache-2.0 (https://www.apache.org/licenses/LICENSE-2.0).
</metadata>
<defs>
<font id="jf-openhuninn-1.1" horiz-adv-x="1024" vert-adv-y="1024" >
  <font-face 
    font-family="jf-openhuninn-1.1"
    font-weight="400"
    font-stretch="normal"
    units-per-em="1024"
    panose-1="2 15 5 0 0 0 0 0 0 0"
    ascent="871"
    descent="-153"
    x-height="511"
    cap-height="739"
    bbox="-442 -287 1314 1026"
    underline-thickness="50"
    underline-position="-100"
    unicode-range="U+0020-30E6C"
  />
<missing-glyph horiz-adv-x="600" 
 />
    <glyph glyph-name="uni0041_uni030B.liga" unicode="A&#x30b;" horiz-adv-x="746" 
d="M283 759q-8 7 -8 19q0 6 1 8l27 90q4 15 15 23.5t24 8.5q15 0 25.5 -9.5t10.5 -24.5q0 -11 -7 -25l-41 -79q-10 -18 -27 -18q-12 0 -20 7zM399 759q-8 7 -8 19q0 6 1 8l27 90q4 15 15 23.5t24 8.5q15 0 25.5 -9.5t10.5 -24.5q0 -11 -7 -25l-41 -79q-10 -18 -27 -18
q-12 0 -20 7zM62 7.5q-13 13.5 -13 32.5q0 7 5 20l255 602q9 20 24 31t35 11h10q20 0 35 -11t24 -31l255 -602q5 -13 5 -20q0 -19 -13 -32.5t-33 -13.5q-15 0 -26.5 7.5t-17.5 21.5l-65 155h-338l-65 -155q-6 -14 -17.5 -21.5t-26.5 -7.5q-20 0 -33 13.5zM373 573
q-5 0 -8 -7l-126 -303h268l-126 303q-3 7 -8 7z" />
    <glyph glyph-name="A_tildecomb.liga" unicode="A&#x303;" horiz-adv-x="746" 
d="M227.5 753q-7.5 7 -7.5 17q0 35 25 65.5t60 30.5q19 0 36 -5.5t44 -18.5q26 -13 41.5 -18t32.5 -5q13 0 21.5 6t14.5 20q8 22 26 22q10 0 16.5 -6.5t7.5 -16.5q0 -37 -25 -66.5t-60 -29.5q-19 0 -35 5.5t-47 19.5q-26 13 -41 18t-31 5q-25 0 -38 -31q-6 -19 -24 -19
q-9 0 -16.5 7zM62 7.5q-13 13.5 -13 32.5q0 7 5 20l255 602q9 20 24 31t35 11h10q20 0 35 -11t24 -31l255 -602q5 -13 5 -20q0 -19 -13 -32.5t-33 -13.5q-15 0 -26.5 7.5t-17.5 21.5l-65 155h-338l-65 -155q-6 -14 -17.5 -21.5t-26.5 -7.5q-20 0 -33 13.5zM373 573
q-5 0 -8 -7l-126 -303h268l-126 303q-3 7 -8 7z" />
    <glyph glyph-name="uni0041_uni030D.liga" unicode="A&#x30d;" horiz-adv-x="746" 
d="M346.5 933q9.5 10 27.5 10q17 0 27 -9.5t10 -27.5v-117q0 -17 -9.5 -27t-27.5 -10q-17 0 -27 9.5t-10 27.5v117q0 17 9.5 27zM62 7.5q-13 13.5 -13 32.5q0 7 5 20l255 602q9 20 24 31t35 11h10q20 0 35 -11t24 -31l255 -602q5 -13 5 -20q0 -19 -13 -32.5t-33 -13.5
q-15 0 -26.5 7.5t-17.5 21.5l-65 155h-338l-65 -155q-6 -14 -17.5 -21.5t-26.5 -7.5q-20 0 -33 13.5zM373 573q-5 0 -8 -7l-126 -303h268l-126 303q-3 7 -8 7z" />
    <glyph glyph-name="uni0045_uni030B.liga" unicode="E&#x30b;" horiz-adv-x="638" 
d="M236 756q-8 7 -8 19q0 6 1 8l27 90q4 15 15 23.5t24 8.5q15 0 25.5 -9.5t10.5 -24.5q0 -11 -7 -25l-41 -79q-10 -18 -27 -18q-12 0 -20 7zM352 756q-8 7 -8 19q0 6 1 8l27 90q4 15 15 23.5t24 8.5q15 0 25.5 -9.5t10.5 -24.5q0 -11 -7 -25l-41 -79q-10 -18 -27 -18
q-12 0 -20 7zM109.5 12.5q-13.5 13.5 -13.5 32.5v607q0 19 13.5 33t32.5 14h401q18 0 31 -13t13 -31t-13 -30.5t-31 -12.5h-342q-12 0 -12 -12v-207h318q18 0 31 -13t13 -31t-13 -30.5t-31 -12.5h-318v-208q0 -12 12 -12h342q18 0 31 -13t13 -31t-13 -30.5t-31 -12.5h-401
q-19 0 -32.5 13.5z" />
    <glyph glyph-name="E_tildecomb.liga" unicode="E&#x303;" horiz-adv-x="638" 
d="M180.5 750q-7.5 7 -7.5 17q0 35 25 65.5t60 30.5q19 0 36 -5.5t44 -18.5q26 -13 41.5 -18t32.5 -5q13 0 21.5 6t14.5 20q8 22 26 22q10 0 16.5 -6.5t7.5 -16.5q0 -37 -25 -66.5t-60 -29.5q-18 0 -34.5 5.5t-47.5 19.5q-26 13 -41 18t-31 5q-25 0 -38 -31q-6 -19 -24 -19
q-9 0 -16.5 7zM109.5 12.5q-13.5 13.5 -13.5 32.5v607q0 19 13.5 33t32.5 14h401q18 0 31 -13t13 -31t-13 -30.5t-31 -12.5h-342q-12 0 -12 -12v-207h318q18 0 31 -13t13 -31t-13 -30.5t-31 -12.5h-318v-208q0 -12 12 -12h342q18 0 31 -13t13 -31t-13 -30.5t-31 -12.5h-401
q-19 0 -32.5 13.5z" />
    <glyph glyph-name="uni0045_uni030D.liga" unicode="E&#x30d;" horiz-adv-x="638" 
d="M299.5 930q9.5 10 27.5 10q17 0 27 -9.5t10 -27.5v-117q0 -17 -9.5 -27t-27.5 -10q-17 0 -27 9.5t-10 27.5v117q0 17 9.5 27zM109.5 12.5q-13.5 13.5 -13.5 32.5v607q0 19 13.5 33t32.5 14h401q18 0 31 -13t13 -31t-13 -30.5t-31 -12.5h-342q-12 0 -12 -12v-207h318
q18 0 31 -13t13 -31t-13 -30.5t-31 -12.5h-318v-208q0 -12 12 -12h342q18 0 31 -13t13 -31t-13 -30.5t-31 -12.5h-401q-19 0 -32.5 13.5z" />
    <glyph glyph-name="uni0049_uni030B.liga" unicode="I&#x30b;" horiz-adv-x="285" 
d="M52 760q-8 7 -8 19q0 6 1 8l27 90q4 15 15 23.5t24 8.5q15 0 25.5 -9.5t10.5 -24.5q0 -11 -7 -25l-41 -79q-10 -18 -27 -18q-12 0 -20 7zM168 760q-8 7 -8 19q0 6 1 8l27 90q4 15 15 23.5t24 8.5q15 0 25.5 -9.5t10.5 -24.5q0 -11 -7 -25l-41 -79q-10 -18 -27 -18
q-12 0 -20 7zM109.5 7.5q-13.5 13.5 -13.5 32.5v617q0 19 13.5 33t32.5 14t33 -14t14 -33v-617q0 -19 -14 -32.5t-33 -13.5t-32.5 13.5z" />
    <glyph glyph-name="I_tildecomb.liga" unicode="I&#x303;" horiz-adv-x="285" 
d="M-3.5 754q-7.5 7 -7.5 17q0 35 25 65.5t60 30.5q19 0 36 -5.5t44 -18.5q26 -13 41.5 -18t32.5 -5q13 0 21.5 6t14.5 20q8 22 26 22q10 0 16.5 -6.5t7.5 -16.5q0 -37 -25 -66.5t-60 -29.5q-19 0 -35 5.5t-47 19.5q-26 13 -41 18t-31 5q-25 0 -38 -31q-6 -19 -24 -19
q-9 0 -16.5 7zM109.5 7.5q-13.5 13.5 -13.5 32.5v617q0 19 13.5 33t32.5 14t33 -14t14 -33v-617q0 -19 -14 -32.5t-33 -13.5t-32.5 13.5z" />
    <glyph glyph-name="uni0049_uni030D.liga" unicode="I&#x30d;" horiz-adv-x="285" 
d="M115.5 934q9.5 10 27.5 10q17 0 27 -9.5t10 -27.5v-117q0 -17 -9.5 -27t-27.5 -10q-17 0 -27 9.5t-10 27.5v117q0 17 9.5 27zM109.5 7.5q-13.5 13.5 -13.5 32.5v617q0 19 13.5 33t32.5 14t33 -14t14 -33v-617q0 -19 -14 -32.5t-33 -13.5t-32.5 13.5z" />
    <glyph glyph-name="M_gravecomb.liga" unicode="M&#x300;" horiz-adv-x="966" 
d="M460 701l-69 82q-10 15 -10 26q0 18 10.5 28t27.5 10q24 0 34 -20l51 -89q7 -12 7 -20q0 -12 -7.5 -20t-20.5 -8q-14 0 -23 11zM109.5 7.5q-13.5 13.5 -13.5 32.5v597q0 27 19.5 47t46.5 20h33q19 0 36 -11.5t26 -31.5l218 -544q3 -7 8 -7t8 7l218 544q9 20 26 31.5
t36 11.5h33q27 0 46.5 -20t19.5 -47v-597q0 -19 -13.5 -32.5t-32.5 -13.5t-33 13.5t-14 32.5v528q0 9 -6 9q-4 0 -7 -6l-216 -534q-8 -19 -26 -31t-39 -12t-39 12t-26 31l-216 534q-3 6 -7 6q-6 0 -6 -9v-528q0 -19 -14 -32.5t-33 -13.5t-32.5 13.5z" />
    <glyph glyph-name="M_acutecomb.liga" unicode="M&#x301;" horiz-adv-x="966" 
d="M463 697.5q-8 7.5 -8 20.5q0 8 7 20l51 89q10 20 34 20q16 0 27 -10.5t11 -27.5q0 -16 -10 -26l-69 -82q-9 -11 -23 -11q-12 0 -20 7.5zM109.5 7.5q-13.5 13.5 -13.5 32.5v597q0 27 19.5 47t46.5 20h33q19 0 36 -11.5t26 -31.5l218 -544q3 -7 8 -7t8 7l218 544
q9 20 26 31.5t36 11.5h33q27 0 46.5 -20t19.5 -47v-597q0 -19 -13.5 -32.5t-32.5 -13.5t-33 13.5t-14 32.5v528q0 9 -6 9q-4 0 -7 -6l-216 -534q-8 -19 -26 -31t-39 -12t-39 12t-26 31l-216 534q-3 6 -7 6q-6 0 -6 -9v-528q0 -19 -14 -32.5t-33 -13.5t-32.5 13.5z" />
    <glyph glyph-name="uni004D_uni030B.liga" unicode="M&#x30b;" horiz-adv-x="966" 
d="M392 707q-8 7 -8 19q0 6 1 8l27 90q4 15 15 23.5t24 8.5q15 0 25.5 -9.5t10.5 -24.5q0 -11 -7 -25l-41 -79q-10 -18 -27 -18q-12 0 -20 7zM508 707q-8 7 -8 19q0 6 1 8l27 90q4 15 15 23.5t24 8.5q15 0 25.5 -9.5t10.5 -24.5q0 -11 -7 -25l-41 -79q-10 -18 -27 -18
q-12 0 -20 7zM109.5 7.5q-13.5 13.5 -13.5 32.5v597q0 27 19.5 47t46.5 20h33q19 0 36 -11.5t26 -31.5l218 -544q3 -7 8 -7t8 7l218 544q9 20 26 31.5t36 11.5h33q27 0 46.5 -20t19.5 -47v-597q0 -19 -13.5 -32.5t-32.5 -13.5t-33 13.5t-14 32.5v528q0 9 -6 9q-4 0 -7 -6
l-216 -534q-8 -19 -26 -31t-39 -12t-39 12t-26 31l-216 534q-3 6 -7 6q-6 0 -6 -9v-528q0 -19 -14 -32.5t-33 -13.5t-32.5 13.5z" />
    <glyph glyph-name="uni004D_uni0302.liga" unicode="M&#x302;" horiz-adv-x="966" 
d="M356.5 709.5q-9.5 9.5 -9.5 20.5t8 21l68 70q19 20 41 20h38q22 0 41 -20l68 -70q8 -10 8 -21t-9.5 -20.5t-21.5 -9.5q-11 0 -19 7l-78 66q-3 4 -8 4q-4 0 -8 -4l-78 -66q-8 -7 -19 -7q-12 0 -21.5 9.5zM109.5 7.5q-13.5 13.5 -13.5 32.5v597q0 27 19.5 47t46.5 20h33
q19 0 36 -11.5t26 -31.5l218 -544q3 -7 8 -7t8 7l218 544q9 20 26 31.5t36 11.5h33q27 0 46.5 -20t19.5 -47v-597q0 -19 -13.5 -32.5t-32.5 -13.5t-33 13.5t-14 32.5v528q0 9 -6 9q-4 0 -7 -6l-216 -534q-8 -19 -26 -31t-39 -12t-39 12t-26 31l-216 534q-3 6 -7 6
q-6 0 -6 -9v-528q0 -19 -14 -32.5t-33 -13.5t-32.5 13.5z" />
    <glyph glyph-name="uni004D_uni030C.liga" unicode="M&#x30c;" horiz-adv-x="966" 
d="M423 720l-68 70q-8 10 -8 21t9.5 20.5t21.5 9.5q11 0 19 -7l78 -66q6 -4 8 -4q4 0 8 4l78 66q8 7 19 7q12 0 21.5 -9.5t9.5 -20.5t-8 -21l-68 -70q-19 -20 -41 -20h-38q-22 0 -41 20zM109.5 7.5q-13.5 13.5 -13.5 32.5v597q0 27 19.5 47t46.5 20h33q19 0 36 -11.5
t26 -31.5l218 -544q3 -7 8 -7t8 7l218 544q9 20 26 31.5t36 11.5h33q27 0 46.5 -20t19.5 -47v-597q0 -19 -13.5 -32.5t-32.5 -13.5t-33 13.5t-14 32.5v528q0 9 -6 9q-4 0 -7 -6l-216 -534q-8 -19 -26 -31t-39 -12t-39 12t-26 31l-216 534q-3 6 -7 6q-6 0 -6 -9v-528
q0 -19 -14 -32.5t-33 -13.5t-32.5 13.5z" />
    <glyph glyph-name="uni004D_uni0306.liga" unicode="M&#x306;" horiz-adv-x="966" 
d="M397 711.5q-38 21.5 -55 60.5q-3 6 -3 14q0 13 9 22.5t23 9.5q20 0 29 -20q11 -23 32.5 -35.5t50.5 -12.5t50.5 12.5t32.5 35.5q9 20 29 20q14 0 23 -9.5t9 -22.5q0 -8 -3 -14q-17 -39 -55 -60.5t-86 -21.5t-86 21.5zM109.5 7.5q-13.5 13.5 -13.5 32.5v597q0 27 19.5 47
t46.5 20h33q19 0 36 -11.5t26 -31.5l218 -544q3 -7 8 -7t8 7l218 544q9 20 26 31.5t36 11.5h33q27 0 46.5 -20t19.5 -47v-597q0 -19 -13.5 -32.5t-32.5 -13.5t-33 13.5t-14 32.5v528q0 9 -6 9q-4 0 -7 -6l-216 -534q-8 -19 -26 -31t-39 -12t-39 12t-26 31l-216 534
q-3 6 -7 6q-6 0 -6 -9v-528q0 -19 -14 -32.5t-33 -13.5t-32.5 13.5z" />
    <glyph glyph-name="uni004D_uni0304.liga" unicode="M&#x304;" horiz-adv-x="966" 
d="M344 729q-9 9 -9 22t9 22t22 9h234q13 0 22 -9t9 -22t-9 -22t-22 -9h-234q-13 0 -22 9zM109.5 7.5q-13.5 13.5 -13.5 32.5v597q0 27 19.5 47t46.5 20h33q19 0 36 -11.5t26 -31.5l218 -544q3 -7 8 -7t8 7l218 544q9 20 26 31.5t36 11.5h33q27 0 46.5 -20t19.5 -47v-597
q0 -19 -13.5 -32.5t-32.5 -13.5t-33 13.5t-14 32.5v528q0 9 -6 9q-4 0 -7 -6l-216 -534q-8 -19 -26 -31t-39 -12t-39 12t-26 31l-216 534q-3 6 -7 6q-6 0 -6 -9v-528q0 -19 -14 -32.5t-33 -13.5t-32.5 13.5z" />
    <glyph glyph-name="uni004D_uni030D.liga" unicode="M&#x30d;" horiz-adv-x="966" 
d="M455.5 881q9.5 10 27.5 10q17 0 27 -9.5t10 -27.5v-117q0 -17 -9.5 -27t-27.5 -10q-17 0 -27 9.5t-10 27.5v117q0 17 9.5 27zM109.5 7.5q-13.5 13.5 -13.5 32.5v597q0 27 19.5 47t46.5 20h33q19 0 36 -11.5t26 -31.5l218 -544q3 -7 8 -7t8 7l218 544q9 20 26 31.5
t36 11.5h33q27 0 46.5 -20t19.5 -47v-597q0 -19 -13.5 -32.5t-32.5 -13.5t-33 13.5t-14 32.5v528q0 9 -6 9q-4 0 -7 -6l-216 -534q-8 -19 -26 -31t-39 -12t-39 12t-26 31l-216 534q-3 6 -7 6q-6 0 -6 -9v-528q0 -19 -14 -32.5t-33 -13.5t-32.5 13.5z" />
    <glyph glyph-name="N_gravecomb.liga" unicode="N&#x300;" horiz-adv-x="803" 
d="M371 743l-69 82q-10 15 -10 26q0 18 10.5 28t27.5 10q24 0 34 -20l51 -89q7 -12 7 -20q0 -12 -7.5 -20t-20.5 -8q-14 0 -23 11zM109.5 7.5q-13.5 13.5 -13.5 32.5v597q0 27 19.5 47t46.5 20h13q32 0 56 -30l369 -533q5 -6 8 -6q2 0 4 3t2 7v512q0 19 13.5 33t32.5 14
t33 -14t14 -33v-597q0 -27 -20 -46.5t-47 -19.5h-12q-16 0 -30.5 7.5t-23.5 19.5l-371 536q-5 6 -8 6q-2 0 -4 -3t-2 -7v-513q0 -19 -14 -32.5t-33 -13.5t-32.5 13.5z" />
    <glyph glyph-name="N_acutecomb.liga" unicode="N&#x301;" horiz-adv-x="803" 
d="M374 739.5q-8 7.5 -8 20.5q0 8 7 20l51 89q10 20 34 20q16 0 27 -10.5t11 -27.5q0 -16 -10 -26l-69 -82q-9 -11 -23 -11q-12 0 -20 7.5zM109.5 7.5q-13.5 13.5 -13.5 32.5v597q0 27 19.5 47t46.5 20h13q32 0 56 -30l369 -533q5 -6 8 -6q2 0 4 3t2 7v512q0 19 13.5 33
t32.5 14t33 -14t14 -33v-597q0 -27 -20 -46.5t-47 -19.5h-12q-16 0 -30.5 7.5t-23.5 19.5l-371 536q-5 6 -8 6q-2 0 -4 -3t-2 -7v-513q0 -19 -14 -32.5t-33 -13.5t-32.5 13.5z" />
    <glyph glyph-name="uni004E_uni030B.liga" unicode="N&#x30b;" horiz-adv-x="803" 
d="M303 749q-8 7 -8 19q0 6 1 8l27 90q4 15 15 23.5t24 8.5q15 0 25.5 -9.5t10.5 -24.5q0 -11 -7 -25l-41 -79q-10 -18 -27 -18q-12 0 -20 7zM419 749q-8 7 -8 19q0 6 1 8l27 90q4 15 15 23.5t24 8.5q15 0 25.5 -9.5t10.5 -24.5q0 -11 -7 -25l-41 -79q-10 -18 -27 -18
q-12 0 -20 7zM109.5 7.5q-13.5 13.5 -13.5 32.5v597q0 27 19.5 47t46.5 20h13q32 0 56 -30l369 -533q5 -6 8 -6q2 0 4 3t2 7v512q0 19 13.5 33t32.5 14t33 -14t14 -33v-597q0 -27 -20 -46.5t-47 -19.5h-12q-16 0 -30.5 7.5t-23.5 19.5l-371 536q-5 6 -8 6q-2 0 -4 -3t-2 -7
v-513q0 -19 -14 -32.5t-33 -13.5t-32.5 13.5z" />
    <glyph glyph-name="uni004E_uni0302.liga" unicode="N&#x302;" horiz-adv-x="803" 
d="M267.5 751.5q-9.5 9.5 -9.5 20.5t8 21l68 70q19 20 41 20h38q22 0 41 -20l68 -70q8 -10 8 -21t-9.5 -20.5t-21.5 -9.5q-11 0 -19 7l-78 66q-3 4 -8 4q-4 0 -8 -4l-78 -66q-8 -7 -19 -7q-12 0 -21.5 9.5zM109.5 7.5q-13.5 13.5 -13.5 32.5v597q0 27 19.5 47t46.5 20h13
q32 0 56 -30l369 -533q5 -6 8 -6q2 0 4 3t2 7v512q0 19 13.5 33t32.5 14t33 -14t14 -33v-597q0 -27 -20 -46.5t-47 -19.5h-12q-16 0 -30.5 7.5t-23.5 19.5l-371 536q-5 6 -8 6q-2 0 -4 -3t-2 -7v-513q0 -19 -14 -32.5t-33 -13.5t-32.5 13.5z" />
    <glyph glyph-name="uni004E_uni030C.liga" unicode="N&#x30c;" horiz-adv-x="803" 
d="M334 762l-68 70q-8 10 -8 21t9.5 20.5t21.5 9.5q11 0 19 -7l78 -66q6 -4 8 -4q4 0 8 4l78 66q8 7 19 7q12 0 21.5 -9.5t9.5 -20.5t-8 -21l-68 -70q-19 -20 -41 -20h-38q-22 0 -41 20zM109.5 7.5q-13.5 13.5 -13.5 32.5v597q0 27 19.5 47t46.5 20h13q32 0 56 -30l369 -533
q5 -6 8 -6q2 0 4 3t2 7v512q0 19 13.5 33t32.5 14t33 -14t14 -33v-597q0 -27 -20 -46.5t-47 -19.5h-12q-16 0 -30.5 7.5t-23.5 19.5l-371 536q-5 6 -8 6q-2 0 -4 -3t-2 -7v-513q0 -19 -14 -32.5t-33 -13.5t-32.5 13.5z" />
    <glyph glyph-name="uni004E_uni0306.liga" unicode="N&#x306;" horiz-adv-x="803" 
d="M308 753.5q-38 21.5 -55 60.5q-3 6 -3 14q0 13 9 22.5t23 9.5q20 0 29 -20q11 -23 32.5 -35.5t50.5 -12.5t50.5 12.5t32.5 35.5q9 20 29 20q14 0 23 -9.5t9 -22.5q0 -8 -3 -14q-17 -39 -55 -60.5t-86 -21.5t-86 21.5zM109.5 7.5q-13.5 13.5 -13.5 32.5v597q0 27 19.5 47
t46.5 20h13q32 0 56 -30l369 -533q5 -6 8 -6q2 0 4 3t2 7v512q0 19 13.5 33t32.5 14t33 -14t14 -33v-597q0 -27 -20 -46.5t-47 -19.5h-12q-16 0 -30.5 7.5t-23.5 19.5l-371 536q-5 6 -8 6q-2 0 -4 -3t-2 -7v-513q0 -19 -14 -32.5t-33 -13.5t-32.5 13.5z" />
    <glyph glyph-name="uni004E_uni0304.liga" unicode="N&#x304;" horiz-adv-x="803" 
d="M255 771q-9 9 -9 22t9 22t22 9h234q13 0 22 -9t9 -22t-9 -22t-22 -9h-234q-13 0 -22 9zM109.5 7.5q-13.5 13.5 -13.5 32.5v597q0 27 19.5 47t46.5 20h13q32 0 56 -30l369 -533q5 -6 8 -6q2 0 4 3t2 7v512q0 19 13.5 33t32.5 14t33 -14t14 -33v-597q0 -27 -20 -46.5
t-47 -19.5h-12q-16 0 -30.5 7.5t-23.5 19.5l-371 536q-5 6 -8 6q-2 0 -4 -3t-2 -7v-513q0 -19 -14 -32.5t-33 -13.5t-32.5 13.5z" />
    <glyph glyph-name="uni004E_uni030D.liga" unicode="N&#x30d;" horiz-adv-x="803" 
d="M366.5 923q9.5 10 27.5 10q17 0 27 -9.5t10 -27.5v-117q0 -17 -9.5 -27t-27.5 -10q-17 0 -27 9.5t-10 27.5v117q0 17 9.5 27zM109.5 7.5q-13.5 13.5 -13.5 32.5v597q0 27 19.5 47t46.5 20h13q32 0 56 -30l369 -533q5 -6 8 -6q2 0 4 3t2 7v512q0 19 13.5 33t32.5 14
t33 -14t14 -33v-597q0 -27 -20 -46.5t-47 -19.5h-12q-16 0 -30.5 7.5t-23.5 19.5l-371 536q-5 6 -8 6q-2 0 -4 -3t-2 -7v-513q0 -19 -14 -32.5t-33 -13.5t-32.5 13.5z" />
    <glyph glyph-name="O_gravecomb.liga" unicode="O&#x300;" horiz-adv-x="812" 
d="M385 761l-69 82q-10 15 -10 26q0 18 10.5 28t27.5 10q24 0 34 -20l51 -89q7 -12 7 -20q0 -12 -7.5 -20t-20.5 -8q-14 0 -23 11zM221 35q-78 46 -121.5 127.5t-45.5 186.5q2 105 45 186q43 82 123 128t184 46q105 0 185 -46q78 -46 121.5 -128t45.5 -186q-2 -104 -45 -185
q-44 -83 -123.5 -129t-183.5 -46q-105 0 -185 46zM544 112q58 35 89.5 96.5t31.5 140.5q0 78 -31 140q-32 63 -91 98t-137 35q-81 0 -138 -36q-58 -35 -89.5 -96.5t-31.5 -140.5q0 -78 31 -140q32 -64 90.5 -98.5t137.5 -34.5q81 0 138 36z" />
    <glyph glyph-name="uni004F_uni0300_uni0358.liga" unicode="O&#x300;&#x358;" horiz-adv-x="812" 
d="M385 761l-69 82q-10 15 -10 26q0 18 10.5 28t27.5 10q24 0 34 -20l51 -89q7 -12 7 -20q0 -12 -7.5 -20t-20.5 -8q-14 0 -23 11zM707.5 683.5q-15.5 15.5 -15.5 36.5t15.5 36.5t36.5 15.5t36.5 -15.5t15.5 -36.5t-15.5 -36.5t-36.5 -15.5t-36.5 15.5zM221 35
q-78 46 -121.5 127.5t-45.5 186.5q2 105 45 186q43 82 123 128t184 46q105 0 185 -46q78 -46 121.5 -128t45.5 -186q-2 -104 -45 -185q-44 -83 -123.5 -129t-183.5 -46q-105 0 -185 46zM544 112q58 35 89.5 96.5t31.5 140.5q0 78 -31 140q-32 63 -91 98t-137 35
q-81 0 -138 -36q-58 -35 -89.5 -96.5t-31.5 -140.5q0 -78 31 -140q32 -64 90.5 -98.5t137.5 -34.5q81 0 138 36z" />
    <glyph glyph-name="O_acutecomb.liga" unicode="O&#x301;" horiz-adv-x="812" 
d="M388 757.5q-8 7.5 -8 20.5q0 8 7 20l51 89q10 20 34 20q16 0 27 -10.5t11 -27.5q0 -16 -10 -26l-69 -82q-9 -11 -23 -11q-12 0 -20 7.5zM221 35q-78 46 -121.5 127.5t-45.5 186.5q2 105 45 186q43 82 123 128t184 46q105 0 185 -46q78 -46 121.5 -128t45.5 -186
q-2 -104 -45 -185q-44 -83 -123.5 -129t-183.5 -46q-105 0 -185 46zM544 112q58 35 89.5 96.5t31.5 140.5q0 78 -31 140q-32 63 -91 98t-137 35q-81 0 -138 -36q-58 -35 -89.5 -96.5t-31.5 -140.5q0 -78 31 -140q32 -64 90.5 -98.5t137.5 -34.5q81 0 138 36z" />
    <glyph glyph-name="uni004F_uni0301_uni0358.liga" unicode="O&#x301;&#x358;" horiz-adv-x="812" 
d="M388 757.5q-8 7.5 -8 20.5q0 8 7 20l51 89q10 20 34 20q16 0 27 -10.5t11 -27.5q0 -16 -10 -26l-69 -82q-9 -11 -23 -11q-12 0 -20 7.5zM707.5 683.5q-15.5 15.5 -15.5 36.5t15.5 36.5t36.5 15.5t36.5 -15.5t15.5 -36.5t-15.5 -36.5t-36.5 -15.5t-36.5 15.5zM221 35
q-78 46 -121.5 127.5t-45.5 186.5q2 105 45 186q43 82 123 128t184 46q105 0 185 -46q78 -46 121.5 -128t45.5 -186q-2 -104 -45 -185q-44 -83 -123.5 -129t-183.5 -46q-105 0 -185 46zM544 112q58 35 89.5 96.5t31.5 140.5q0 78 -31 140q-32 63 -91 98t-137 35
q-81 0 -138 -36q-58 -35 -89.5 -96.5t-31.5 -140.5q0 -78 31 -140q32 -64 90.5 -98.5t137.5 -34.5q81 0 138 36z" />
    <glyph glyph-name="uni004F_uni030B.liga" unicode="O&#x30b;" horiz-adv-x="812" 
d="M317 767q-8 7 -8 19q0 6 1 8l27 90q4 15 15 23.5t24 8.5q15 0 25.5 -9.5t10.5 -24.5q0 -11 -7 -25l-41 -79q-10 -18 -27 -18q-12 0 -20 7zM433 767q-8 7 -8 19q0 6 1 8l27 90q4 15 15 23.5t24 8.5q15 0 25.5 -9.5t10.5 -24.5q0 -11 -7 -25l-41 -79q-10 -18 -27 -18
q-12 0 -20 7zM221 35q-78 46 -121.5 127.5t-45.5 186.5q2 105 45 186q43 82 123 128t184 46q105 0 185 -46q78 -46 121.5 -128t45.5 -186q-2 -104 -45 -185q-44 -83 -123.5 -129t-183.5 -46q-105 0 -185 46zM544 112q58 35 89.5 96.5t31.5 140.5q0 78 -31 140q-32 63 -91 98
t-137 35q-81 0 -138 -36q-58 -35 -89.5 -96.5t-31.5 -140.5q0 -78 31 -140q32 -64 90.5 -98.5t137.5 -34.5q81 0 138 36z" />
    <glyph glyph-name="uni004F_uni030B_uni0358.liga" unicode="O&#x30b;&#x358;" horiz-adv-x="812" 
d="M317 767q-8 7 -8 19q0 6 1 8l27 90q4 15 15 23.5t24 8.5q15 0 25.5 -9.5t10.5 -24.5q0 -11 -7 -25l-41 -79q-10 -18 -27 -18q-12 0 -20 7zM433 767q-8 7 -8 19q0 6 1 8l27 90q4 15 15 23.5t24 8.5q15 0 25.5 -9.5t10.5 -24.5q0 -11 -7 -25l-41 -79q-10 -18 -27 -18
q-12 0 -20 7zM707.5 683.5q-15.5 15.5 -15.5 36.5t15.5 36.5t36.5 15.5t36.5 -15.5t15.5 -36.5t-15.5 -36.5t-36.5 -15.5t-36.5 15.5zM221 35q-78 46 -121.5 127.5t-45.5 186.5q2 105 45 186q43 82 123 128t184 46q105 0 185 -46q78 -46 121.5 -128t45.5 -186
q-2 -104 -45 -185q-44 -83 -123.5 -129t-183.5 -46q-105 0 -185 46zM544 112q58 35 89.5 96.5t31.5 140.5q0 78 -31 140q-32 63 -91 98t-137 35q-81 0 -138 -36q-58 -35 -89.5 -96.5t-31.5 -140.5q0 -78 31 -140q32 -64 90.5 -98.5t137.5 -34.5q81 0 138 36z" />
    <glyph glyph-name="uni004F_uni0302.liga" unicode="O&#x302;" horiz-adv-x="812" 
d="M281.5 769.5q-9.5 9.5 -9.5 20.5t8 21l68 70q19 20 41 20h38q22 0 41 -20l68 -70q8 -10 8 -21t-9.5 -20.5t-21.5 -9.5q-11 0 -19 7l-78 66q-3 4 -8 4q-4 0 -8 -4l-78 -66q-8 -7 -19 -7q-12 0 -21.5 9.5zM221 35q-78 46 -121.5 127.5t-45.5 186.5q2 105 45 186
q43 82 123 128t184 46q105 0 185 -46q78 -46 121.5 -128t45.5 -186q-2 -104 -45 -185q-44 -83 -123.5 -129t-183.5 -46q-105 0 -185 46zM544 112q58 35 89.5 96.5t31.5 140.5q0 78 -31 140q-32 63 -91 98t-137 35q-81 0 -138 -36q-58 -35 -89.5 -96.5t-31.5 -140.5
q0 -78 31 -140q32 -64 90.5 -98.5t137.5 -34.5q81 0 138 36z" />
    <glyph glyph-name="uni004F_uni0302_uni0358.liga" unicode="O&#x302;&#x358;" horiz-adv-x="812" 
d="M281.5 769.5q-9.5 9.5 -9.5 20.5t8 21l68 70q19 20 41 20h38q22 0 41 -20l68 -70q8 -10 8 -21t-9.5 -20.5t-21.5 -9.5q-11 0 -19 7l-78 66q-3 4 -8 4q-4 0 -8 -4l-78 -66q-8 -7 -19 -7q-12 0 -21.5 9.5zM707.5 683.5q-15.5 15.5 -15.5 36.5t15.5 36.5t36.5 15.5
t36.5 -15.5t15.5 -36.5t-15.5 -36.5t-36.5 -15.5t-36.5 15.5zM221 35q-78 46 -121.5 127.5t-45.5 186.5q2 105 45 186q43 82 123 128t184 46q105 0 185 -46q78 -46 121.5 -128t45.5 -186q-2 -104 -45 -185q-44 -83 -123.5 -129t-183.5 -46q-105 0 -185 46zM544 112
q58 35 89.5 96.5t31.5 140.5q0 78 -31 140q-32 63 -91 98t-137 35q-81 0 -138 -36q-58 -35 -89.5 -96.5t-31.5 -140.5q0 -78 31 -140q32 -64 90.5 -98.5t137.5 -34.5q81 0 138 36z" />
    <glyph glyph-name="uni004F_uni030C.liga" unicode="O&#x30c;" horiz-adv-x="812" 
d="M348 780l-68 70q-8 10 -8 21t9.5 20.5t21.5 9.5q11 0 19 -7l78 -66q6 -4 8 -4q4 0 8 4l78 66q8 7 19 7q12 0 21.5 -9.5t9.5 -20.5t-8 -21l-68 -70q-19 -20 -41 -20h-38q-22 0 -41 20zM221 35q-78 46 -121.5 127.5t-45.5 186.5q2 105 45 186q43 82 123 128t184 46
q105 0 185 -46q78 -46 121.5 -128t45.5 -186q-2 -104 -45 -185q-44 -83 -123.5 -129t-183.5 -46q-105 0 -185 46zM544 112q58 35 89.5 96.5t31.5 140.5q0 78 -31 140q-32 63 -91 98t-137 35q-81 0 -138 -36q-58 -35 -89.5 -96.5t-31.5 -140.5q0 -78 31 -140
q32 -64 90.5 -98.5t137.5 -34.5q81 0 138 36z" />
    <glyph glyph-name="uni004F_uni030C_uni0358.liga" unicode="O&#x30c;&#x358;" horiz-adv-x="812" 
d="M348 780l-68 70q-8 10 -8 21t9.5 20.5t21.5 9.5q11 0 19 -7l78 -66q6 -4 8 -4q4 0 8 4l78 66q8 7 19 7q12 0 21.5 -9.5t9.5 -20.5t-8 -21l-68 -70q-19 -20 -41 -20h-38q-22 0 -41 20zM707.5 683.5q-15.5 15.5 -15.5 36.5t15.5 36.5t36.5 15.5t36.5 -15.5t15.5 -36.5
t-15.5 -36.5t-36.5 -15.5t-36.5 15.5zM221 35q-78 46 -121.5 127.5t-45.5 186.5q2 105 45 186q43 82 123 128t184 46q105 0 185 -46q78 -46 121.5 -128t45.5 -186q-2 -104 -45 -185q-44 -83 -123.5 -129t-183.5 -46q-105 0 -185 46zM544 112q58 35 89.5 96.5t31.5 140.5
q0 78 -31 140q-32 63 -91 98t-137 35q-81 0 -138 -36q-58 -35 -89.5 -96.5t-31.5 -140.5q0 -78 31 -140q32 -64 90.5 -98.5t137.5 -34.5q81 0 138 36z" />
    <glyph glyph-name="uni004F_uni0306.liga" unicode="O&#x306;" horiz-adv-x="812" 
d="M322 771.5q-38 21.5 -55 60.5q-3 6 -3 14q0 13 9 22.5t23 9.5q20 0 29 -20q11 -23 32.5 -35.5t50.5 -12.5t50.5 12.5t32.5 35.5q9 20 29 20q14 0 23 -9.5t9 -22.5q0 -8 -3 -14q-17 -39 -55 -60.5t-86 -21.5t-86 21.5zM221 35q-78 46 -121.5 127.5t-45.5 186.5
q2 105 45 186q43 82 123 128t184 46q105 0 185 -46q78 -46 121.5 -128t45.5 -186q-2 -104 -45 -185q-44 -83 -123.5 -129t-183.5 -46q-105 0 -185 46zM544 112q58 35 89.5 96.5t31.5 140.5q0 78 -31 140q-32 63 -91 98t-137 35q-81 0 -138 -36q-58 -35 -89.5 -96.5
t-31.5 -140.5q0 -78 31 -140q32 -64 90.5 -98.5t137.5 -34.5q81 0 138 36z" />
    <glyph glyph-name="uni004F_uni0306_uni0358.liga" unicode="O&#x306;&#x358;" horiz-adv-x="812" 
d="M322 771.5q-38 21.5 -55 60.5q-3 6 -3 14q0 13 9 22.5t23 9.5q20 0 29 -20q11 -23 32.5 -35.5t50.5 -12.5t50.5 12.5t32.5 35.5q9 20 29 20q14 0 23 -9.5t9 -22.5q0 -8 -3 -14q-17 -39 -55 -60.5t-86 -21.5t-86 21.5zM707.5 683.5q-15.5 15.5 -15.5 36.5t15.5 36.5
t36.5 15.5t36.5 -15.5t15.5 -36.5t-15.5 -36.5t-36.5 -15.5t-36.5 15.5zM221 35q-78 46 -121.5 127.5t-45.5 186.5q2 105 45 186q43 82 123 128t184 46q105 0 185 -46q78 -46 121.5 -128t45.5 -186q-2 -104 -45 -185q-44 -83 -123.5 -129t-183.5 -46q-105 0 -185 46z
M544 112q58 35 89.5 96.5t31.5 140.5q0 78 -31 140q-32 63 -91 98t-137 35q-81 0 -138 -36q-58 -35 -89.5 -96.5t-31.5 -140.5q0 -78 31 -140q32 -64 90.5 -98.5t137.5 -34.5q81 0 138 36z" />
    <glyph glyph-name="O_tildecomb.liga" unicode="O&#x303;" horiz-adv-x="812" 
d="M261.5 761q-7.5 7 -7.5 17q0 35 25 65.5t60 30.5q19 0 36 -5.5t44 -18.5q26 -13 41.5 -18t32.5 -5q13 0 21.5 6t14.5 20q8 22 26 22q10 0 16.5 -6.5t7.5 -16.5q0 -37 -25 -66.5t-60 -29.5q-18 0 -34.5 5.5t-47.5 19.5q-26 13 -41 18t-31 5q-25 0 -38 -31q-6 -19 -24 -19
q-9 0 -16.5 7zM221 35q-78 46 -121.5 127.5t-45.5 186.5q2 105 45 186q43 82 123 128t184 46q105 0 185 -46q78 -46 121.5 -128t45.5 -186q-2 -104 -45 -185q-44 -83 -123.5 -129t-183.5 -46q-105 0 -185 46zM544 112q58 35 89.5 96.5t31.5 140.5q0 78 -31 140
q-32 63 -91 98t-137 35q-81 0 -138 -36q-58 -35 -89.5 -96.5t-31.5 -140.5q0 -78 31 -140q32 -64 90.5 -98.5t137.5 -34.5q81 0 138 36z" />
    <glyph glyph-name="uni004F_uni0304.liga" unicode="O&#x304;" horiz-adv-x="812" 
d="M269 789q-9 9 -9 22t9 22t22 9h234q13 0 22 -9t9 -22t-9 -22t-22 -9h-234q-13 0 -22 9zM221 35q-78 46 -121.5 127.5t-45.5 186.5q2 105 45 186q43 82 123 128t184 46q105 0 185 -46q78 -46 121.5 -128t45.5 -186q-2 -104 -45 -185q-44 -83 -123.5 -129t-183.5 -46
q-105 0 -185 46zM544 112q58 35 89.5 96.5t31.5 140.5q0 78 -31 140q-32 63 -91 98t-137 35q-81 0 -138 -36q-58 -35 -89.5 -96.5t-31.5 -140.5q0 -78 31 -140q32 -64 90.5 -98.5t137.5 -34.5q81 0 138 36z" />
    <glyph glyph-name="uni004F_uni0304_uni0358.liga" unicode="O&#x304;&#x358;" horiz-adv-x="812" 
d="M269 789q-9 9 -9 22t9 22t22 9h234q13 0 22 -9t9 -22t-9 -22t-22 -9h-234q-13 0 -22 9zM707.5 683.5q-15.5 15.5 -15.5 36.5t15.5 36.5t36.5 15.5t36.5 -15.5t15.5 -36.5t-15.5 -36.5t-36.5 -15.5t-36.5 15.5zM221 35q-78 46 -121.5 127.5t-45.5 186.5q2 105 45 186
q43 82 123 128t184 46q105 0 185 -46q78 -46 121.5 -128t45.5 -186q-2 -104 -45 -185q-44 -83 -123.5 -129t-183.5 -46q-105 0 -185 46zM544 112q58 35 89.5 96.5t31.5 140.5q0 78 -31 140q-32 63 -91 98t-137 35q-81 0 -138 -36q-58 -35 -89.5 -96.5t-31.5 -140.5
q0 -78 31 -140q32 -64 90.5 -98.5t137.5 -34.5q81 0 138 36z" />
    <glyph glyph-name="uni004F_uni030D.liga" unicode="O&#x30d;" horiz-adv-x="812" 
d="M380.5 941q9.5 10 27.5 10q17 0 27 -9.5t10 -27.5v-117q0 -17 -9.5 -27t-27.5 -10q-17 0 -27 9.5t-10 27.5v117q0 17 9.5 27zM221 35q-78 46 -121.5 127.5t-45.5 186.5q2 105 45 186q43 82 123 128t184 46q105 0 185 -46q78 -46 121.5 -128t45.5 -186q-2 -104 -45 -185
q-44 -83 -123.5 -129t-183.5 -46q-105 0 -185 46zM544 112q58 35 89.5 96.5t31.5 140.5q0 78 -31 140q-32 63 -91 98t-137 35q-81 0 -138 -36q-58 -35 -89.5 -96.5t-31.5 -140.5q0 -78 31 -140q32 -64 90.5 -98.5t137.5 -34.5q81 0 138 36z" />
    <glyph glyph-name="uni004F_uni030D_uni0358.liga" unicode="O&#x30d;&#x358;" horiz-adv-x="812" 
d="M380.5 941q9.5 10 27.5 10q17 0 27 -9.5t10 -27.5v-117q0 -17 -9.5 -27t-27.5 -10q-17 0 -27 9.5t-10 27.5v117q0 17 9.5 27zM707.5 683.5q-15.5 15.5 -15.5 36.5t15.5 36.5t36.5 15.5t36.5 -15.5t15.5 -36.5t-15.5 -36.5t-36.5 -15.5t-36.5 15.5zM221 35
q-78 46 -121.5 127.5t-45.5 186.5q2 105 45 186q43 82 123 128t184 46q105 0 185 -46q78 -46 121.5 -128t45.5 -186q-2 -104 -45 -185q-44 -83 -123.5 -129t-183.5 -46q-105 0 -185 46zM544 112q58 35 89.5 96.5t31.5 140.5q0 78 -31 140q-32 63 -91 98t-137 35
q-81 0 -138 -36q-58 -35 -89.5 -96.5t-31.5 -140.5q0 -78 31 -140q32 -64 90.5 -98.5t137.5 -34.5q81 0 138 36z" />
    <glyph glyph-name="uni004F_uni0358.liga" unicode="O&#x358;" horiz-adv-x="812" 
d="M707.5 683.5q-15.5 15.5 -15.5 36.5t15.5 36.5t36.5 15.5t36.5 -15.5t15.5 -36.5t-15.5 -36.5t-36.5 -15.5t-36.5 15.5zM221 35q-78 46 -121.5 127.5t-45.5 186.5q2 105 45 186q43 82 123 128t184 46q105 0 185 -46q78 -46 121.5 -128t45.5 -186q-2 -104 -45 -185
q-44 -83 -123.5 -129t-183.5 -46q-105 0 -185 46zM544 112q58 35 89.5 96.5t31.5 140.5q0 78 -31 140q-32 63 -91 98t-137 35q-81 0 -138 -36q-58 -35 -89.5 -96.5t-31.5 -140.5q0 -78 31 -140q32 -64 90.5 -98.5t137.5 -34.5q81 0 138 36z" />
    <glyph glyph-name="uni004F_uni0358_uni0301.liga" unicode="O&#x358;&#x301;" horiz-adv-x="812" 
d="M388 757.5q-8 7.5 -8 20.5q0 8 7 20l51 89q10 20 34 20q16 0 27 -10.5t11 -27.5q0 -16 -10 -26l-69 -82q-9 -11 -23 -11q-12 0 -20 7.5zM707.5 683.5q-15.5 15.5 -15.5 36.5t15.5 36.5t36.5 15.5t36.5 -15.5t15.5 -36.5t-15.5 -36.5t-36.5 -15.5t-36.5 15.5zM221 35
q-78 46 -121.5 127.5t-45.5 186.5q2 105 45 186q43 82 123 128t184 46q105 0 185 -46q78 -46 121.5 -128t45.5 -186q-2 -104 -45 -185q-44 -83 -123.5 -129t-183.5 -46q-105 0 -185 46zM544 112q58 35 89.5 96.5t31.5 140.5q0 78 -31 140q-32 63 -91 98t-137 35
q-81 0 -138 -36q-58 -35 -89.5 -96.5t-31.5 -140.5q0 -78 31 -140q32 -64 90.5 -98.5t137.5 -34.5q81 0 138 36z" />
    <glyph glyph-name="uni004F_uni0358_uni030B.liga" unicode="O&#x358;&#x30b;" horiz-adv-x="812" 
d="M317 767q-8 7 -8 19q0 6 1 8l27 90q4 15 15 23.5t24 8.5q15 0 25.5 -9.5t10.5 -24.5q0 -11 -7 -25l-41 -79q-10 -18 -27 -18q-12 0 -20 7zM433 767q-8 7 -8 19q0 6 1 8l27 90q4 15 15 23.5t24 8.5q15 0 25.5 -9.5t10.5 -24.5q0 -11 -7 -25l-41 -79q-10 -18 -27 -18
q-12 0 -20 7zM707.5 683.5q-15.5 15.5 -15.5 36.5t15.5 36.5t36.5 15.5t36.5 -15.5t15.5 -36.5t-15.5 -36.5t-36.5 -15.5t-36.5 15.5zM221 35q-78 46 -121.5 127.5t-45.5 186.5q2 105 45 186q43 82 123 128t184 46q105 0 185 -46q78 -46 121.5 -128t45.5 -186
q-2 -104 -45 -185q-44 -83 -123.5 -129t-183.5 -46q-105 0 -185 46zM544 112q58 35 89.5 96.5t31.5 140.5q0 78 -31 140q-32 63 -91 98t-137 35q-81 0 -138 -36q-58 -35 -89.5 -96.5t-31.5 -140.5q0 -78 31 -140q32 -64 90.5 -98.5t137.5 -34.5q81 0 138 36z" />
    <glyph glyph-name="uni004F_uni0358_uni0302.liga" unicode="O&#x358;&#x302;" horiz-adv-x="812" 
d="M281.5 769.5q-9.5 9.5 -9.5 20.5t8 21l68 70q19 20 41 20h38q22 0 41 -20l68 -70q8 -10 8 -21t-9.5 -20.5t-21.5 -9.5q-11 0 -19 7l-78 66q-3 4 -8 4q-4 0 -8 -4l-78 -66q-8 -7 -19 -7q-12 0 -21.5 9.5zM707.5 683.5q-15.5 15.5 -15.5 36.5t15.5 36.5t36.5 15.5
t36.5 -15.5t15.5 -36.5t-15.5 -36.5t-36.5 -15.5t-36.5 15.5zM221 35q-78 46 -121.5 127.5t-45.5 186.5q2 105 45 186q43 82 123 128t184 46q105 0 185 -46q78 -46 121.5 -128t45.5 -186q-2 -104 -45 -185q-44 -83 -123.5 -129t-183.5 -46q-105 0 -185 46zM544 112
q58 35 89.5 96.5t31.5 140.5q0 78 -31 140q-32 63 -91 98t-137 35q-81 0 -138 -36q-58 -35 -89.5 -96.5t-31.5 -140.5q0 -78 31 -140q32 -64 90.5 -98.5t137.5 -34.5q81 0 138 36z" />
    <glyph glyph-name="uni004F_uni0358_uni030C.liga" unicode="O&#x358;&#x30c;" horiz-adv-x="812" 
d="M348 780l-68 70q-8 10 -8 21t9.5 20.5t21.5 9.5q11 0 19 -7l78 -66q6 -4 8 -4q4 0 8 4l78 66q8 7 19 7q12 0 21.5 -9.5t9.5 -20.5t-8 -21l-68 -70q-19 -20 -41 -20h-38q-22 0 -41 20zM707.5 683.5q-15.5 15.5 -15.5 36.5t15.5 36.5t36.5 15.5t36.5 -15.5t15.5 -36.5
t-15.5 -36.5t-36.5 -15.5t-36.5 15.5zM221 35q-78 46 -121.5 127.5t-45.5 186.5q2 105 45 186q43 82 123 128t184 46q105 0 185 -46q78 -46 121.5 -128t45.5 -186q-2 -104 -45 -185q-44 -83 -123.5 -129t-183.5 -46q-105 0 -185 46zM544 112q58 35 89.5 96.5t31.5 140.5
q0 78 -31 140q-32 63 -91 98t-137 35q-81 0 -138 -36q-58 -35 -89.5 -96.5t-31.5 -140.5q0 -78 31 -140q32 -64 90.5 -98.5t137.5 -34.5q81 0 138 36z" />
    <glyph glyph-name="uni004F_uni0358_uni0306.liga" unicode="O&#x358;&#x306;" horiz-adv-x="812" 
d="M322 771.5q-38 21.5 -55 60.5q-3 6 -3 14q0 13 9 22.5t23 9.5q20 0 29 -20q11 -23 32.5 -35.5t50.5 -12.5t50.5 12.5t32.5 35.5q9 20 29 20q14 0 23 -9.5t9 -22.5q0 -8 -3 -14q-17 -39 -55 -60.5t-86 -21.5t-86 21.5zM707.5 683.5q-15.5 15.5 -15.5 36.5t15.5 36.5
t36.5 15.5t36.5 -15.5t15.5 -36.5t-15.5 -36.5t-36.5 -15.5t-36.5 15.5zM221 35q-78 46 -121.5 127.5t-45.5 186.5q2 105 45 186q43 82 123 128t184 46q105 0 185 -46q78 -46 121.5 -128t45.5 -186q-2 -104 -45 -185q-44 -83 -123.5 -129t-183.5 -46q-105 0 -185 46z
M544 112q58 35 89.5 96.5t31.5 140.5q0 78 -31 140q-32 63 -91 98t-137 35q-81 0 -138 -36q-58 -35 -89.5 -96.5t-31.5 -140.5q0 -78 31 -140q32 -64 90.5 -98.5t137.5 -34.5q81 0 138 36z" />
    <glyph glyph-name="uni004F_uni0358_uni0304.liga" unicode="O&#x358;&#x304;" horiz-adv-x="812" 
d="M269 789q-9 9 -9 22t9 22t22 9h234q13 0 22 -9t9 -22t-9 -22t-22 -9h-234q-13 0 -22 9zM707.5 683.5q-15.5 15.5 -15.5 36.5t15.5 36.5t36.5 15.5t36.5 -15.5t15.5 -36.5t-15.5 -36.5t-36.5 -15.5t-36.5 15.5zM221 35q-78 46 -121.5 127.5t-45.5 186.5q2 105 45 186
q43 82 123 128t184 46q105 0 185 -46q78 -46 121.5 -128t45.5 -186q-2 -104 -45 -185q-44 -83 -123.5 -129t-183.5 -46q-105 0 -185 46zM544 112q58 35 89.5 96.5t31.5 140.5q0 78 -31 140q-32 63 -91 98t-137 35q-81 0 -138 -36q-58 -35 -89.5 -96.5t-31.5 -140.5
q0 -78 31 -140q32 -64 90.5 -98.5t137.5 -34.5q81 0 138 36z" />
    <glyph glyph-name="uni004F_uni0358_uni030D.liga" unicode="O&#x358;&#x30d;" horiz-adv-x="812" 
d="M380.5 941q9.5 10 27.5 10q17 0 27 -9.5t10 -27.5v-117q0 -17 -9.5 -27t-27.5 -10q-17 0 -27 9.5t-10 27.5v117q0 17 9.5 27zM707.5 683.5q-15.5 15.5 -15.5 36.5t15.5 36.5t36.5 15.5t36.5 -15.5t15.5 -36.5t-15.5 -36.5t-36.5 -15.5t-36.5 15.5zM221 35
q-78 46 -121.5 127.5t-45.5 186.5q2 105 45 186q43 82 123 128t184 46q105 0 185 -46q78 -46 121.5 -128t45.5 -186q-2 -104 -45 -185q-44 -83 -123.5 -129t-183.5 -46q-105 0 -185 46zM544 112q58 35 89.5 96.5t31.5 140.5q0 78 -31 140q-32 63 -91 98t-137 35
q-81 0 -138 -36q-58 -35 -89.5 -96.5t-31.5 -140.5q0 -78 31 -140q32 -64 90.5 -98.5t137.5 -34.5q81 0 138 36z" />
    <glyph glyph-name="uni0055_uni030B.liga" unicode="U&#x30b;" horiz-adv-x="758" 
d="M288 749q-8 7 -8 19q0 6 1 8l27 90q4 15 15 23.5t24 8.5q15 0 25.5 -9.5t10.5 -24.5q0 -11 -7 -25l-41 -79q-10 -18 -27 -18q-12 0 -20 7zM404 749q-8 7 -8 19q0 6 1 8l27 90q4 15 15 23.5t24 8.5q15 0 25.5 -9.5t10.5 -24.5q0 -11 -7 -25l-41 -79q-10 -18 -27 -18
q-12 0 -20 7zM242 19q-69 31 -110 94t-41 149v395q0 19 13.5 33t32.5 14t33 -14t14 -33v-398q0 -61 28 -101q26 -41 70.5 -62.5t96.5 -21.5q51 0 96 21q47 22 73 64.5t26 99.5v398q0 19 13.5 33t32.5 14t33 -14t14 -33v-395q0 -88 -42 -151q-41 -60 -106.5 -91t-139.5 -31
q-72 0 -137 30z" />
    <glyph glyph-name="U_tildecomb.liga" unicode="U&#x303;" horiz-adv-x="758" 
d="M232.5 743q-7.5 7 -7.5 17q0 35 25 65.5t60 30.5q19 0 36 -5.5t44 -18.5q26 -13 41.5 -18t32.5 -5q13 0 21.5 6t14.5 20q8 22 26 22q10 0 16.5 -6.5t7.5 -16.5q0 -37 -25 -66.5t-60 -29.5q-19 0 -35 5.5t-47 19.5q-26 13 -41 18t-31 5q-25 0 -38 -31q-6 -19 -24 -19
q-9 0 -16.5 7zM242 19q-69 31 -110 94t-41 149v395q0 19 13.5 33t32.5 14t33 -14t14 -33v-398q0 -61 28 -101q26 -41 70.5 -62.5t96.5 -21.5q51 0 96 21q47 22 73 64.5t26 99.5v398q0 19 13.5 33t32.5 14t33 -14t14 -33v-395q0 -88 -42 -151q-41 -60 -106.5 -91t-139.5 -31
q-72 0 -137 30z" />
    <glyph glyph-name="uni0055_uni030D.liga" unicode="U&#x30d;" horiz-adv-x="758" 
d="M351.5 923q9.5 10 27.5 10q17 0 27 -9.5t10 -27.5v-117q0 -17 -9.5 -27t-27.5 -10q-17 0 -27 9.5t-10 27.5v117q0 17 9.5 27zM242 19q-69 31 -110 94t-41 149v395q0 19 13.5 33t32.5 14t33 -14t14 -33v-398q0 -61 28 -101q26 -41 70.5 -62.5t96.5 -21.5q51 0 96 21
q47 22 73 64.5t26 99.5v398q0 19 13.5 33t32.5 14t33 -14t14 -33v-395q0 -88 -42 -151q-41 -60 -106.5 -91t-139.5 -31q-72 0 -137 30z" />
    <glyph glyph-name="uni0061_uni030B.liga" unicode="a&#x30b;" horiz-adv-x="562" 
d="M188 576q-8 7 -8 19q0 6 1 8l27 90q4 15 15 23.5t24 8.5q15 0 25.5 -9.5t10.5 -24.5q0 -11 -7 -25l-41 -79q-10 -18 -27 -18q-12 0 -20 7zM304 576q-8 7 -8 19q0 6 1 8l27 90q4 15 15 23.5t24 8.5q15 0 25.5 -9.5t10.5 -24.5q0 -11 -7 -25l-41 -79q-10 -18 -27 -18
q-12 0 -20 7zM128 7q-39 18 -61 53t-22 80q0 78 60.5 120.5t170.5 42.5h120v7q0 64 -31.5 93.5t-101.5 29.5q-36 0 -65 -5.5t-68 -18.5l-13 -2q-15 0 -26.5 11.5t-11.5 27.5q0 28 27 39q84 36 173 36q69 0 118 -28q46 -27 69 -71.5t23 -98.5v-283q0 -19 -14 -32.5t-33 -13.5
t-32.5 13.5t-13.5 32.5v24q-72 -75 -187 -75q-43 0 -81 18zM326.5 91.5q40.5 20.5 69.5 53.5v83h-108q-150 0 -150 -78q0 -79 105 -79q43 0 83.5 20.5z" />
    <glyph glyph-name="a_tildecomb.liga" unicode="a&#x303;" horiz-adv-x="562" 
d="M132.5 597q-7.5 7 -7.5 17q0 35 25 65.5t60 30.5q19 0 36 -5.5t44 -18.5q26 -13 41.5 -18t32.5 -5q26 0 36 26q8 22 26 22q10 0 17 -6.5t7 -16.5q0 -37 -25 -66.5t-60 -29.5q-19 0 -36 5.5t-46 19.5q-26 13 -41 18t-31 5q-28 0 -38 -31q-6 -19 -24 -19q-9 0 -16.5 7z
M128 7q-39 18 -61 53t-22 80q0 78 60.5 120.5t170.5 42.5h120v7q0 64 -31.5 93.5t-101.5 29.5q-36 0 -65 -5.5t-68 -18.5l-13 -2q-15 0 -26.5 11.5t-11.5 27.5q0 28 27 39q84 36 173 36q69 0 118 -28q46 -27 69 -71.5t23 -98.5v-283q0 -19 -14 -32.5t-33 -13.5t-32.5 13.5
t-13.5 32.5v24q-72 -75 -187 -75q-43 0 -81 18zM326.5 91.5q40.5 20.5 69.5 53.5v83h-108q-150 0 -150 -78q0 -79 105 -79q43 0 83.5 20.5z" />
    <glyph glyph-name="uni0061_uni030D.liga" unicode="a&#x30d;" horiz-adv-x="562" 
d="M251.5 750q9.5 10 27.5 10q17 0 27 -9.5t10 -27.5v-117q0 -17 -9.5 -27t-27.5 -10q-17 0 -27 9.5t-10 27.5v117q0 17 9.5 27zM128 7q-39 18 -61 53t-22 80q0 78 60.5 120.5t170.5 42.5h120v7q0 64 -31.5 93.5t-101.5 29.5q-36 0 -65 -5.5t-68 -18.5l-13 -2
q-15 0 -26.5 11.5t-11.5 27.5q0 28 27 39q84 36 173 36q69 0 118 -28q46 -27 69 -71.5t23 -98.5v-283q0 -19 -14 -32.5t-33 -13.5t-32.5 13.5t-13.5 32.5v24q-72 -75 -187 -75q-43 0 -81 18zM326.5 91.5q40.5 20.5 69.5 53.5v83h-108q-150 0 -150 -78q0 -79 105 -79
q43 0 83.5 20.5z" />
    <glyph glyph-name="uni0065_uni030B.liga" unicode="e&#x30b;" horiz-adv-x="566" 
d="M196 576q-8 7 -8 19q0 6 1 8l27 90q4 15 15 23.5t24 8.5q15 0 25.5 -9.5t10.5 -24.5q0 -11 -7 -25l-41 -79q-10 -18 -27 -18q-12 0 -20 7zM312 576q-8 7 -8 19q0 6 1 8l27 90q4 15 15 23.5t24 8.5q15 0 25.5 -9.5t10.5 -24.5q0 -11 -7 -25l-41 -79q-10 -18 -27 -18
q-12 0 -20 7zM115.5 59q-68.5 70 -68.5 196q0 68 26 131q27 63 82 99t132 36q74 0 129 -34q52 -34 81 -91.5t29 -127.5q0 -19 -13 -32.5t-34 -13.5h-338q9 -71 53.5 -108.5t120.5 -37.5q40 0 71.5 7.5t63.5 23.5q7 4 18 4q16 0 28.5 -11.5t12.5 -28.5q0 -23 -27 -38
q-42 -23 -80 -33.5t-95 -10.5q-123 0 -191.5 70zM433 311q-4 40 -24 67q-22 32 -54.5 48t-67.5 16q-32 0 -67 -15q-35 -17 -55.5 -50.5t-23.5 -78.5h280q13 0 12 13z" />
    <glyph glyph-name="e_tildecomb.liga" unicode="e&#x303;" horiz-adv-x="566" 
d="M140.5 597q-7.5 7 -7.5 17q0 35 25 65.5t60 30.5q19 0 36 -5.5t44 -18.5q26 -13 41.5 -18t32.5 -5q26 0 36 26q8 22 26 22q10 0 17 -6.5t7 -16.5q0 -37 -25 -66.5t-60 -29.5q-19 0 -36 5.5t-46 19.5q-26 13 -41 18t-31 5q-28 0 -38 -31q-6 -19 -24 -19q-9 0 -16.5 7z
M115.5 59q-68.5 70 -68.5 196q0 68 26 131q27 63 82 99t132 36q74 0 129 -34q52 -34 81 -91.5t29 -127.5q0 -19 -13 -32.5t-34 -13.5h-338q9 -71 53.5 -108.5t120.5 -37.5q40 0 71.5 7.5t63.5 23.5q7 4 18 4q16 0 28.5 -11.5t12.5 -28.5q0 -23 -27 -38q-42 -23 -80 -33.5
t-95 -10.5q-123 0 -191.5 70zM433 311q-4 40 -24 67q-22 32 -54.5 48t-67.5 16q-32 0 -67 -15q-35 -17 -55.5 -50.5t-23.5 -78.5h280q13 0 12 13z" />
    <glyph glyph-name="uni0065_uni030D.liga" unicode="e&#x30d;" horiz-adv-x="566" 
d="M259.5 750q9.5 10 27.5 10q17 0 27 -9.5t10 -27.5v-117q0 -17 -9.5 -27t-27.5 -10q-17 0 -27 9.5t-10 27.5v117q0 17 9.5 27zM115.5 59q-68.5 70 -68.5 196q0 68 26 131q27 63 82 99t132 36q74 0 129 -34q52 -34 81 -91.5t29 -127.5q0 -19 -13 -32.5t-34 -13.5h-338
q9 -71 53.5 -108.5t120.5 -37.5q40 0 71.5 7.5t63.5 23.5q7 4 18 4q16 0 28.5 -11.5t12.5 -28.5q0 -23 -27 -38q-42 -23 -80 -33.5t-95 -10.5q-123 0 -191.5 70zM433 311q-4 40 -24 67q-22 32 -54.5 48t-67.5 16q-32 0 -67 -15q-35 -17 -55.5 -50.5t-23.5 -78.5h280
q13 0 12 13z" />
    <glyph glyph-name="uni0131_uni030B.liga" unicode="&#x131;&#x30b;" horiz-adv-x="249" 
d="M33 571q-8 7 -8 19q0 6 1 8l27 90q4 15 15 23.5t24 8.5q15 0 25.5 -9.5t10.5 -24.5q0 -11 -7 -25l-41 -79q-10 -18 -27 -18q-12 0 -20 7zM149 571q-8 7 -8 19q0 6 1 8l27 90q4 15 15 23.5t24 8.5q15 0 25.5 -9.5t10.5 -24.5q0 -11 -7 -25l-41 -79q-10 -18 -27 -18
q-12 0 -20 7zM91.5 7.5q-13.5 13.5 -13.5 32.5v429q0 19 13.5 33t32.5 14q20 0 33.5 -13.5t13.5 -33.5v-429q0 -19 -14 -32.5t-33 -13.5t-32.5 13.5z" />
    <glyph glyph-name="dotlessi_tildecomb.liga" unicode="&#x131;&#x303;" horiz-adv-x="249" 
d="M-22.5 592q-7.5 7 -7.5 17q0 35 25 65.5t60 30.5q19 0 36 -5.5t44 -18.5q26 -13 41.5 -18t32.5 -5q26 0 36 26q8 22 26 22q10 0 17 -6.5t7 -16.5q0 -37 -25 -66.5t-60 -29.5q-19 0 -36 5.5t-46 19.5q-26 13 -41 18t-31 5q-28 0 -38 -31q-6 -19 -24 -19q-9 0 -16.5 7z
M91.5 7.5q-13.5 13.5 -13.5 32.5v429q0 19 13.5 33t32.5 14q20 0 33.5 -13.5t13.5 -33.5v-429q0 -19 -14 -32.5t-33 -13.5t-32.5 13.5z" />
    <glyph glyph-name="uni0131_uni030D.liga" unicode="&#x131;&#x30d;" horiz-adv-x="249" 
d="M96.5 745q9.5 10 27.5 10q17 0 27 -9.5t10 -27.5v-117q0 -17 -9.5 -27t-27.5 -10q-17 0 -27 9.5t-10 27.5v117q0 17 9.5 27zM91.5 7.5q-13.5 13.5 -13.5 32.5v429q0 19 13.5 33t32.5 14q20 0 33.5 -13.5t13.5 -33.5v-429q0 -19 -14 -32.5t-33 -13.5t-32.5 13.5z" />
    <glyph glyph-name="uni0069_uni030B.liga" unicode="i&#x30b;" horiz-adv-x="249" 
d="M33 571q-8 7 -8 19q0 6 1 8l27 90q4 15 15 23.5t24 8.5q15 0 25.5 -9.5t10.5 -24.5q0 -11 -7 -25l-41 -79q-10 -18 -27 -18q-12 0 -20 7zM149 571q-8 7 -8 19q0 6 1 8l27 90q4 15 15 23.5t24 8.5q15 0 25.5 -9.5t10.5 -24.5q0 -11 -7 -25l-41 -79q-10 -18 -27 -18
q-12 0 -20 7zM91.5 7.5q-13.5 13.5 -13.5 32.5v429q0 19 13.5 33t32.5 14q20 0 33.5 -13.5t13.5 -33.5v-429q0 -19 -14 -32.5t-33 -13.5t-32.5 13.5z" />
    <glyph glyph-name="i_tildecomb.liga" unicode="i&#x303;" horiz-adv-x="249" 
d="M-22.5 592q-7.5 7 -7.5 17q0 35 25 65.5t60 30.5q19 0 36 -5.5t44 -18.5q26 -13 41.5 -18t32.5 -5q26 0 36 26q8 22 26 22q10 0 17 -6.5t7 -16.5q0 -37 -25 -66.5t-60 -29.5q-19 0 -36 5.5t-46 19.5q-26 13 -41 18t-31 5q-28 0 -38 -31q-6 -19 -24 -19q-9 0 -16.5 7z
M91.5 7.5q-13.5 13.5 -13.5 32.5v429q0 19 13.5 33t32.5 14q20 0 33.5 -13.5t13.5 -33.5v-429q0 -19 -14 -32.5t-33 -13.5t-32.5 13.5z" />
    <glyph glyph-name="uni0069_uni030D.liga" unicode="i&#x30d;" horiz-adv-x="249" 
d="M96.5 745q9.5 10 27.5 10q17 0 27 -9.5t10 -27.5v-117q0 -17 -9.5 -27t-27.5 -10q-17 0 -27 9.5t-10 27.5v117q0 17 9.5 27zM91.5 7.5q-13.5 13.5 -13.5 32.5v429q0 19 13.5 33t32.5 14q20 0 33.5 -13.5t13.5 -33.5v-429q0 -19 -14 -32.5t-33 -13.5t-32.5 13.5z" />
    <glyph glyph-name="m_gravecomb.liga" unicode="m&#x300;" horiz-adv-x="918" 
d="M401 648q-10 15 -10 26q0 18 10.5 28t27.5 10q24 0 34 -20l51 -89q7 -12 7 -20q0 -12 -7.5 -20t-20.5 -8q-14 0 -23 11zM826.5 422q18.5 -44 18.5 -94v-288q0 -19 -14 -32.5t-33 -13.5t-32.5 13.5t-13.5 32.5v270q0 67 -23.5 96t-77.5 29q-48 0 -81 -24.5t-62 -70.5v-300
q0 -19 -14 -32.5t-33 -13.5t-32.5 13.5t-13.5 32.5v270q0 67 -23.5 96t-77.5 29q-48 0 -81 -24.5t-62 -70.5v-300q0 -19 -14 -32.5t-33 -13.5t-32.5 13.5t-13.5 32.5v429q0 19 13.5 33t32.5 14t33 -14t14 -33v-37q31 42 71 65.5t98 23.5q54 0 94.5 -28.5t58.5 -73.5
q62 102 184 102q58 0 95 -28q36 -27 54.5 -71z" />
    <glyph glyph-name="m_acutecomb.liga" unicode="m&#x301;" horiz-adv-x="918" 
d="M473 562.5q-8 7.5 -8 20.5q0 8 7 20l51 89q10 20 34 20q16 0 27 -10.5t11 -27.5q0 -16 -10 -26l-69 -82q-9 -11 -23 -11q-12 0 -20 7.5zM826.5 422q18.5 -44 18.5 -94v-288q0 -19 -14 -32.5t-33 -13.5t-32.5 13.5t-13.5 32.5v270q0 67 -23.5 96t-77.5 29q-48 0 -81 -24.5
t-62 -70.5v-300q0 -19 -14 -32.5t-33 -13.5t-32.5 13.5t-13.5 32.5v270q0 67 -23.5 96t-77.5 29q-48 0 -81 -24.5t-62 -70.5v-300q0 -19 -14 -32.5t-33 -13.5t-32.5 13.5t-13.5 32.5v429q0 19 13.5 33t32.5 14t33 -14t14 -33v-37q31 42 71 65.5t98 23.5q54 0 94.5 -28.5
t58.5 -73.5q62 102 184 102q58 0 95 -28q36 -27 54.5 -71z" />
    <glyph glyph-name="uni006D_uni030B.liga" unicode="m&#x30b;" horiz-adv-x="918" 
d="M402 572q-8 7 -8 19q0 6 1 8l27 90q4 15 15 23.5t24 8.5q15 0 25.5 -9.5t10.5 -24.5q0 -11 -7 -25l-41 -79q-10 -18 -27 -18q-12 0 -20 7zM518 572q-8 7 -8 19q0 6 1 8l27 90q4 15 15 23.5t24 8.5q15 0 25.5 -9.5t10.5 -24.5q0 -11 -7 -25l-41 -79q-10 -18 -27 -18
q-12 0 -20 7zM826.5 422q18.5 -44 18.5 -94v-288q0 -19 -14 -32.5t-33 -13.5t-32.5 13.5t-13.5 32.5v270q0 67 -23.5 96t-77.5 29q-48 0 -81 -24.5t-62 -70.5v-300q0 -19 -14 -32.5t-33 -13.5t-32.5 13.5t-13.5 32.5v270q0 67 -23.5 96t-77.5 29q-48 0 -81 -24.5t-62 -70.5
v-300q0 -19 -14 -32.5t-33 -13.5t-32.5 13.5t-13.5 32.5v429q0 19 13.5 33t32.5 14t33 -14t14 -33v-37q31 42 71 65.5t98 23.5q54 0 94.5 -28.5t58.5 -73.5q62 102 184 102q58 0 95 -28q36 -27 54.5 -71z" />
    <glyph glyph-name="uni006D_uni0302.liga" unicode="m&#x302;" horiz-adv-x="918" 
d="M366.5 574.5q-9.5 9.5 -9.5 20.5t8 21l68 70q19 20 41 20h38q22 0 41 -20l68 -70q8 -10 8 -21t-9.5 -20.5t-21.5 -9.5q-11 0 -19 7l-78 66q-3 4 -8 4q-4 0 -8 -4l-78 -66q-8 -7 -19 -7q-12 0 -21.5 9.5zM826.5 422q18.5 -44 18.5 -94v-288q0 -19 -14 -32.5t-33 -13.5
t-32.5 13.5t-13.5 32.5v270q0 67 -23.5 96t-77.5 29q-48 0 -81 -24.5t-62 -70.5v-300q0 -19 -14 -32.5t-33 -13.5t-32.5 13.5t-13.5 32.5v270q0 67 -23.5 96t-77.5 29q-48 0 -81 -24.5t-62 -70.5v-300q0 -19 -14 -32.5t-33 -13.5t-32.5 13.5t-13.5 32.5v429q0 19 13.5 33
t32.5 14t33 -14t14 -33v-37q31 42 71 65.5t98 23.5q54 0 94.5 -28.5t58.5 -73.5q62 102 184 102q58 0 95 -28q36 -27 54.5 -71z" />
    <glyph glyph-name="uni006D_uni030C.liga" unicode="m&#x30c;" horiz-adv-x="918" 
d="M357 676q0 11 9.5 20.5t21.5 9.5q11 0 19 -7l78 -66q6 -4 8 -4q4 0 8 4l78 66q8 7 19 7q12 0 21.5 -9.5t9.5 -20.5t-8 -21l-68 -70q-19 -20 -41 -20h-38q-22 0 -41 20l-68 70q-8 10 -8 21zM826.5 422q18.5 -44 18.5 -94v-288q0 -19 -14 -32.5t-33 -13.5t-32.5 13.5
t-13.5 32.5v270q0 67 -23.5 96t-77.5 29q-48 0 -81 -24.5t-62 -70.5v-300q0 -19 -14 -32.5t-33 -13.5t-32.5 13.5t-13.5 32.5v270q0 67 -23.5 96t-77.5 29q-48 0 -81 -24.5t-62 -70.5v-300q0 -19 -14 -32.5t-33 -13.5t-32.5 13.5t-13.5 32.5v429q0 19 13.5 33t32.5 14
t33 -14t14 -33v-37q31 42 71 65.5t98 23.5q54 0 94.5 -28.5t58.5 -73.5q62 102 184 102q58 0 95 -28q36 -27 54.5 -71z" />
    <glyph glyph-name="uni006D_uni0306.liga" unicode="m&#x306;" horiz-adv-x="918" 
d="M407 576.5q-38 21.5 -55 60.5q-3 6 -3 14q0 13 9 22.5t23 9.5q20 0 29 -20q11 -23 32.5 -35.5t50.5 -12.5t50.5 12.5t32.5 35.5q9 20 29 20q14 0 23 -9.5t9 -22.5q0 -8 -3 -14q-17 -39 -55 -60.5t-86 -21.5t-86 21.5zM826.5 422q18.5 -44 18.5 -94v-288q0 -19 -14 -32.5
t-33 -13.5t-32.5 13.5t-13.5 32.5v270q0 67 -23.5 96t-77.5 29q-48 0 -81 -24.5t-62 -70.5v-300q0 -19 -14 -32.5t-33 -13.5t-32.5 13.5t-13.5 32.5v270q0 67 -23.5 96t-77.5 29q-48 0 -81 -24.5t-62 -70.5v-300q0 -19 -14 -32.5t-33 -13.5t-32.5 13.5t-13.5 32.5v429
q0 19 13.5 33t32.5 14t33 -14t14 -33v-37q31 42 71 65.5t98 23.5q54 0 94.5 -28.5t58.5 -73.5q62 102 184 102q58 0 95 -28q36 -27 54.5 -71z" />
    <glyph glyph-name="uni006D_uni0304.liga" unicode="m&#x304;" horiz-adv-x="918" 
d="M354 594q-9 9 -9 22t9 22t22 9h234q13 0 22 -9t9 -22t-9 -22t-22 -9h-234q-13 0 -22 9zM826.5 422q18.5 -44 18.5 -94v-288q0 -19 -14 -32.5t-33 -13.5t-32.5 13.5t-13.5 32.5v270q0 67 -23.5 96t-77.5 29q-48 0 -81 -24.5t-62 -70.5v-300q0 -19 -14 -32.5t-33 -13.5
t-32.5 13.5t-13.5 32.5v270q0 67 -23.5 96t-77.5 29q-48 0 -81 -24.5t-62 -70.5v-300q0 -19 -14 -32.5t-33 -13.5t-32.5 13.5t-13.5 32.5v429q0 19 13.5 33t32.5 14t33 -14t14 -33v-37q31 42 71 65.5t98 23.5q54 0 94.5 -28.5t58.5 -73.5q62 102 184 102q58 0 95 -28
q36 -27 54.5 -71z" />
    <glyph glyph-name="uni006D_uni030D.liga" unicode="m&#x30d;" horiz-adv-x="918" 
d="M466 574.5q-10 9.5 -10 27.5v117q0 17 9.5 27t27.5 10q17 0 27 -9.5t10 -27.5v-117q0 -17 -9.5 -27t-27.5 -10q-17 0 -27 9.5zM826.5 422q18.5 -44 18.5 -94v-288q0 -19 -14 -32.5t-33 -13.5t-32.5 13.5t-13.5 32.5v270q0 67 -23.5 96t-77.5 29q-48 0 -81 -24.5
t-62 -70.5v-300q0 -19 -14 -32.5t-33 -13.5t-32.5 13.5t-13.5 32.5v270q0 67 -23.5 96t-77.5 29q-48 0 -81 -24.5t-62 -70.5v-300q0 -19 -14 -32.5t-33 -13.5t-32.5 13.5t-13.5 32.5v429q0 19 13.5 33t32.5 14t33 -14t14 -33v-37q31 42 71 65.5t98 23.5q54 0 94.5 -28.5
t58.5 -73.5q62 102 184 102q58 0 95 -28q36 -27 54.5 -71z" />
    <glyph glyph-name="n_gravecomb.liga" unicode="n&#x300;" horiz-adv-x="609" 
d="M293 570l-69 82q-10 15 -10 26q0 18 10.5 28t27.5 10q24 0 34 -20l51 -89q7 -12 7 -20q0 -12 -7.5 -20t-20.5 -8q-14 0 -23 11zM91.5 7.5q-13.5 13.5 -13.5 32.5v429q0 19 13.5 33t32.5 14t33 -14t14 -33v-38q41 44 85 67t100 23q55 0 97 -26q40 -26 61.5 -71t21.5 -100
v-284q0 -19 -14 -32.5t-33 -13.5t-32.5 13.5t-13.5 32.5v274q0 121 -109 121q-48 0 -86.5 -24t-76.5 -71v-300q0 -19 -14 -32.5t-33 -13.5t-32.5 13.5z" />
    <glyph glyph-name="n_acutecomb.liga" unicode="n&#x301;" horiz-adv-x="609" 
d="M296 566.5q-8 7.5 -8 20.5q0 8 7 20l51 89q10 20 34 20q16 0 27 -10.5t11 -27.5q0 -16 -10 -26l-69 -82q-9 -11 -23 -11q-12 0 -20 7.5zM91.5 7.5q-13.5 13.5 -13.5 32.5v429q0 19 13.5 33t32.5 14t33 -14t14 -33v-38q41 44 85 67t100 23q55 0 97 -26q40 -26 61.5 -71
t21.5 -100v-284q0 -19 -14 -32.5t-33 -13.5t-32.5 13.5t-13.5 32.5v274q0 121 -109 121q-48 0 -86.5 -24t-76.5 -71v-300q0 -19 -14 -32.5t-33 -13.5t-32.5 13.5z" />
    <glyph glyph-name="uni006E_uni030B.liga" unicode="n&#x30b;" horiz-adv-x="609" 
d="M225 576q-8 7 -8 19q0 6 1 8l27 90q4 15 15 23.5t24 8.5q15 0 25.5 -9.5t10.5 -24.5q0 -11 -7 -25l-41 -79q-10 -18 -27 -18q-12 0 -20 7zM341 576q-8 7 -8 19q0 6 1 8l27 90q4 15 15 23.5t24 8.5q15 0 25.5 -9.5t10.5 -24.5q0 -11 -7 -25l-41 -79q-10 -18 -27 -18
q-12 0 -20 7zM91.5 7.5q-13.5 13.5 -13.5 32.5v429q0 19 13.5 33t32.5 14t33 -14t14 -33v-38q41 44 85 67t100 23q55 0 97 -26q40 -26 61.5 -71t21.5 -100v-284q0 -19 -14 -32.5t-33 -13.5t-32.5 13.5t-13.5 32.5v274q0 121 -109 121q-48 0 -86.5 -24t-76.5 -71v-300
q0 -19 -14 -32.5t-33 -13.5t-32.5 13.5z" />
    <glyph glyph-name="uni006E_uni0302.liga" unicode="n&#x302;" horiz-adv-x="609" 
d="M189.5 578.5q-9.5 9.5 -9.5 20.5t8 21l68 70q19 20 41 20h38q22 0 41 -20l68 -70q8 -10 8 -21t-9.5 -20.5t-21.5 -9.5q-11 0 -19 7l-78 66q-3 4 -8 4q-4 0 -8 -4l-78 -66q-8 -7 -19 -7q-12 0 -21.5 9.5zM91.5 7.5q-13.5 13.5 -13.5 32.5v429q0 19 13.5 33t32.5 14t33 -14
t14 -33v-38q41 44 85 67t100 23q55 0 97 -26q40 -26 61.5 -71t21.5 -100v-284q0 -19 -14 -32.5t-33 -13.5t-32.5 13.5t-13.5 32.5v274q0 121 -109 121q-48 0 -86.5 -24t-76.5 -71v-300q0 -19 -14 -32.5t-33 -13.5t-32.5 13.5z" />
    <glyph glyph-name="uni006E_uni030C.liga" unicode="n&#x30c;" horiz-adv-x="609" 
d="M256 589l-68 70q-8 10 -8 21t9.5 20.5t21.5 9.5q11 0 19 -7l78 -66q6 -4 8 -4q4 0 8 4l78 66q8 7 19 7q12 0 21.5 -9.5t9.5 -20.5t-8 -21l-68 -70q-19 -20 -41 -20h-38q-22 0 -41 20zM91.5 7.5q-13.5 13.5 -13.5 32.5v429q0 19 13.5 33t32.5 14t33 -14t14 -33v-38
q41 44 85 67t100 23q55 0 97 -26q40 -26 61.5 -71t21.5 -100v-284q0 -19 -14 -32.5t-33 -13.5t-32.5 13.5t-13.5 32.5v274q0 121 -109 121q-48 0 -86.5 -24t-76.5 -71v-300q0 -19 -14 -32.5t-33 -13.5t-32.5 13.5z" />
    <glyph glyph-name="uni006E_uni0306.liga" unicode="n&#x306;" horiz-adv-x="609" 
d="M230 580.5q-38 21.5 -55 60.5q-3 6 -3 14q0 13 9 22.5t23 9.5q20 0 29 -20q11 -23 32.5 -35.5t50.5 -12.5t50.5 12.5t32.5 35.5q9 20 29 20q14 0 23 -9.5t9 -22.5q0 -8 -3 -14q-17 -39 -55 -60.5t-86 -21.5t-86 21.5zM91.5 7.5q-13.5 13.5 -13.5 32.5v429q0 19 13.5 33
t32.5 14t33 -14t14 -33v-38q41 44 85 67t100 23q55 0 97 -26q40 -26 61.5 -71t21.5 -100v-284q0 -19 -14 -32.5t-33 -13.5t-32.5 13.5t-13.5 32.5v274q0 121 -109 121q-48 0 -86.5 -24t-76.5 -71v-300q0 -19 -14 -32.5t-33 -13.5t-32.5 13.5z" />
    <glyph glyph-name="uni006E_uni0304.liga" unicode="n&#x304;" horiz-adv-x="609" 
d="M177 598q-9 9 -9 22t9 22t22 9h234q13 0 22 -9t9 -22t-9 -22t-22 -9h-234q-13 0 -22 9zM91.5 7.5q-13.5 13.5 -13.5 32.5v429q0 19 13.5 33t32.5 14t33 -14t14 -33v-38q41 44 85 67t100 23q55 0 97 -26q40 -26 61.5 -71t21.5 -100v-284q0 -19 -14 -32.5t-33 -13.5
t-32.5 13.5t-13.5 32.5v274q0 121 -109 121q-48 0 -86.5 -24t-76.5 -71v-300q0 -19 -14 -32.5t-33 -13.5t-32.5 13.5z" />
    <glyph glyph-name="uni006E_uni030D.liga" unicode="n&#x30d;" horiz-adv-x="609" 
d="M288.5 750q9.5 10 27.5 10q17 0 27 -9.5t10 -27.5v-117q0 -17 -9.5 -27t-27.5 -10q-17 0 -27 9.5t-10 27.5v117q0 17 9.5 27zM91.5 7.5q-13.5 13.5 -13.5 32.5v429q0 19 13.5 33t32.5 14t33 -14t14 -33v-38q41 44 85 67t100 23q55 0 97 -26q40 -26 61.5 -71t21.5 -100
v-284q0 -19 -14 -32.5t-33 -13.5t-32.5 13.5t-13.5 32.5v274q0 121 -109 121q-48 0 -86.5 -24t-76.5 -71v-300q0 -19 -14 -32.5t-33 -13.5t-32.5 13.5z" />
    <glyph glyph-name="o_gravecomb.liga" unicode="o&#x300;" horiz-adv-x="608" 
d="M281 570l-69 82q-10 15 -10 26q0 18 10.5 28t27.5 10q24 0 34 -20l51 -89q7 -12 7 -20q0 -12 -7.5 -20t-20.5 -8q-14 0 -23 11zM169 22q-58 34 -90 95t-32 138q0 78 32 139t90.5 94t134.5 33t134 -33q59 -34 91 -94.5t32 -138.5t-32 -138q-33 -62 -91.5 -95t-133.5 -33
q-77 0 -135 33zM383 93q39 20 62 61.5t23 101.5q0 63 -24 102q-22 38 -58.5 58t-81.5 20q-41 0 -79 -18q-39 -20 -62 -61t-23 -101q0 -64 24 -103q22 -39 58.5 -59t81.5 -20q41 0 79 19z" />
    <glyph glyph-name="uni006F_uni0300_uni0358.liga" unicode="o&#x300;&#x358;" horiz-adv-x="608" 
d="M281 570l-69 82q-10 15 -10 26q0 18 10.5 28t27.5 10q24 0 34 -20l51 -89q7 -12 7 -20q0 -12 -7.5 -20t-20.5 -8q-14 0 -23 11zM524.5 499.5q-15.5 15.5 -15.5 36.5t15.5 36.5t36.5 15.5t36.5 -15.5t15.5 -36.5t-15.5 -36.5t-36.5 -15.5t-36.5 15.5zM169 22
q-58 34 -90 95t-32 138q0 78 32 139t90.5 94t134.5 33t134 -33q59 -34 91 -94.5t32 -138.5t-32 -138q-33 -62 -91.5 -95t-133.5 -33q-77 0 -135 33zM383 93q39 20 62 61.5t23 101.5q0 63 -24 102q-22 38 -58.5 58t-81.5 20q-41 0 -79 -18q-39 -20 -62 -61t-23 -101
q0 -64 24 -103q22 -39 58.5 -59t81.5 -20q41 0 79 19z" />
    <glyph glyph-name="o_acutecomb.liga" unicode="o&#x301;" horiz-adv-x="608" 
d="M284 566.5q-8 7.5 -8 20.5q0 8 7 20l51 89q10 20 34 20q16 0 27 -10.5t11 -27.5q0 -16 -10 -26l-69 -82q-9 -11 -23 -11q-12 0 -20 7.5zM169 22q-58 34 -90 95t-32 138q0 78 32 139t90.5 94t134.5 33t134 -33q59 -34 91 -94.5t32 -138.5t-32 -138q-33 -62 -91.5 -95
t-133.5 -33q-77 0 -135 33zM383 93q39 20 62 61.5t23 101.5q0 63 -24 102q-22 38 -58.5 58t-81.5 20q-41 0 -79 -18q-39 -20 -62 -61t-23 -101q0 -64 24 -103q22 -39 58.5 -59t81.5 -20q41 0 79 19z" />
    <glyph glyph-name="uni006F_uni0301_uni0358.liga" unicode="o&#x301;&#x358;" horiz-adv-x="608" 
d="M284 566.5q-8 7.5 -8 20.5q0 8 7 20l51 89q10 20 34 20q16 0 27 -10.5t11 -27.5q0 -16 -10 -26l-69 -82q-9 -11 -23 -11q-12 0 -20 7.5zM524.5 499.5q-15.5 15.5 -15.5 36.5t15.5 36.5t36.5 15.5t36.5 -15.5t15.5 -36.5t-15.5 -36.5t-36.5 -15.5t-36.5 15.5zM169 22
q-58 34 -90 95t-32 138q0 78 32 139t90.5 94t134.5 33t134 -33q59 -34 91 -94.5t32 -138.5t-32 -138q-33 -62 -91.5 -95t-133.5 -33q-77 0 -135 33zM383 93q39 20 62 61.5t23 101.5q0 63 -24 102q-22 38 -58.5 58t-81.5 20q-41 0 -79 -18q-39 -20 -62 -61t-23 -101
q0 -64 24 -103q22 -39 58.5 -59t81.5 -20q41 0 79 19z" />
    <glyph glyph-name="uni006F_uni030B.liga" unicode="o&#x30b;" horiz-adv-x="608" 
d="M213 576q-8 7 -8 19q0 6 1 8l27 90q4 15 15 23.5t24 8.5q15 0 25.5 -9.5t10.5 -24.5q0 -11 -7 -25l-41 -79q-10 -18 -27 -18q-12 0 -20 7zM329 576q-8 7 -8 19q0 6 1 8l27 90q4 15 15 23.5t24 8.5q15 0 25.5 -9.5t10.5 -24.5q0 -11 -7 -25l-41 -79q-10 -18 -27 -18
q-12 0 -20 7zM169 22q-58 34 -90 95t-32 138q0 78 32 139t90.5 94t134.5 33t134 -33q59 -34 91 -94.5t32 -138.5t-32 -138q-33 -62 -91.5 -95t-133.5 -33q-77 0 -135 33zM383 93q39 20 62 61.5t23 101.5q0 63 -24 102q-22 38 -58.5 58t-81.5 20q-41 0 -79 -18
q-39 -20 -62 -61t-23 -101q0 -64 24 -103q22 -39 58.5 -59t81.5 -20q41 0 79 19z" />
    <glyph glyph-name="uni006F_uni030B_uni0358.liga" unicode="o&#x30b;&#x358;" horiz-adv-x="608" 
d="M213 576q-8 7 -8 19q0 6 1 8l27 90q4 15 15 23.5t24 8.5q15 0 25.5 -9.5t10.5 -24.5q0 -11 -7 -25l-41 -79q-10 -18 -27 -18q-12 0 -20 7zM329 576q-8 7 -8 19q0 6 1 8l27 90q4 15 15 23.5t24 8.5q15 0 25.5 -9.5t10.5 -24.5q0 -11 -7 -25l-41 -79q-10 -18 -27 -18
q-12 0 -20 7zM524.5 499.5q-15.5 15.5 -15.5 36.5t15.5 36.5t36.5 15.5t36.5 -15.5t15.5 -36.5t-15.5 -36.5t-36.5 -15.5t-36.5 15.5zM169 22q-58 34 -90 95t-32 138q0 78 32 139t90.5 94t134.5 33t134 -33q59 -34 91 -94.5t32 -138.5t-32 -138q-33 -62 -91.5 -95
t-133.5 -33q-77 0 -135 33zM383 93q39 20 62 61.5t23 101.5q0 63 -24 102q-22 38 -58.5 58t-81.5 20q-41 0 -79 -18q-39 -20 -62 -61t-23 -101q0 -64 24 -103q22 -39 58.5 -59t81.5 -20q41 0 79 19z" />
    <glyph glyph-name="uni006F_uni0302.liga" unicode="o&#x302;" horiz-adv-x="608" 
d="M177.5 578.5q-9.5 9.5 -9.5 20.5t8 21l68 70q19 20 41 20h38q22 0 41 -20l68 -70q8 -10 8 -21t-9.5 -20.5t-21.5 -9.5q-11 0 -19 7l-78 66q-3 4 -8 4q-4 0 -8 -4l-78 -66q-8 -7 -19 -7q-12 0 -21.5 9.5zM169 22q-58 34 -90 95t-32 138q0 78 32 139t90.5 94t134.5 33
t134 -33q59 -34 91 -94.5t32 -138.5t-32 -138q-33 -62 -91.5 -95t-133.5 -33q-77 0 -135 33zM383 93q39 20 62 61.5t23 101.5q0 63 -24 102q-22 38 -58.5 58t-81.5 20q-41 0 -79 -18q-39 -20 -62 -61t-23 -101q0 -64 24 -103q22 -39 58.5 -59t81.5 -20q41 0 79 19z" />
    <glyph glyph-name="uni006F_uni0302_uni0358.liga" unicode="o&#x302;&#x358;" horiz-adv-x="608" 
d="M177.5 578.5q-9.5 9.5 -9.5 20.5t8 21l68 70q19 20 41 20h38q22 0 41 -20l68 -70q8 -10 8 -21t-9.5 -20.5t-21.5 -9.5q-11 0 -19 7l-78 66q-3 4 -8 4q-4 0 -8 -4l-78 -66q-8 -7 -19 -7q-12 0 -21.5 9.5zM524.5 499.5q-15.5 15.5 -15.5 36.5t15.5 36.5t36.5 15.5
t36.5 -15.5t15.5 -36.5t-15.5 -36.5t-36.5 -15.5t-36.5 15.5zM169 22q-58 34 -90 95t-32 138q0 78 32 139t90.5 94t134.5 33t134 -33q59 -34 91 -94.5t32 -138.5t-32 -138q-33 -62 -91.5 -95t-133.5 -33q-77 0 -135 33zM383 93q39 20 62 61.5t23 101.5q0 63 -24 102
q-22 38 -58.5 58t-81.5 20q-41 0 -79 -18q-39 -20 -62 -61t-23 -101q0 -64 24 -103q22 -39 58.5 -59t81.5 -20q41 0 79 19z" />
    <glyph glyph-name="uni006F_uni030C.liga" unicode="o&#x30c;" horiz-adv-x="608" 
d="M244 589l-68 70q-8 10 -8 21t9.5 20.5t21.5 9.5q11 0 19 -7l78 -66q6 -4 8 -4q4 0 8 4l78 66q8 7 19 7q12 0 21.5 -9.5t9.5 -20.5t-8 -21l-68 -70q-19 -20 -41 -20h-38q-22 0 -41 20zM169 22q-58 34 -90 95t-32 138q0 78 32 139t90.5 94t134.5 33t134 -33
q59 -34 91 -94.5t32 -138.5t-32 -138q-33 -62 -91.5 -95t-133.5 -33q-77 0 -135 33zM383 93q39 20 62 61.5t23 101.5q0 63 -24 102q-22 38 -58.5 58t-81.5 20q-41 0 -79 -18q-39 -20 -62 -61t-23 -101q0 -64 24 -103q22 -39 58.5 -59t81.5 -20q41 0 79 19z" />
    <glyph glyph-name="uni006F_uni030C_uni0358.liga" unicode="o&#x30c;&#x358;" horiz-adv-x="608" 
d="M244 589l-68 70q-8 10 -8 21t9.5 20.5t21.5 9.5q11 0 19 -7l78 -66q6 -4 8 -4q4 0 8 4l78 66q8 7 19 7q12 0 21.5 -9.5t9.5 -20.5t-8 -21l-68 -70q-19 -20 -41 -20h-38q-22 0 -41 20zM524.5 499.5q-15.5 15.5 -15.5 36.5t15.5 36.5t36.5 15.5t36.5 -15.5t15.5 -36.5
t-15.5 -36.5t-36.5 -15.5t-36.5 15.5zM169 22q-58 34 -90 95t-32 138q0 78 32 139t90.5 94t134.5 33t134 -33q59 -34 91 -94.5t32 -138.5t-32 -138q-33 -62 -91.5 -95t-133.5 -33q-77 0 -135 33zM383 93q39 20 62 61.5t23 101.5q0 63 -24 102q-22 38 -58.5 58t-81.5 20
q-41 0 -79 -18q-39 -20 -62 -61t-23 -101q0 -64 24 -103q22 -39 58.5 -59t81.5 -20q41 0 79 19z" />
    <glyph glyph-name="uni006F_uni0306.liga" unicode="o&#x306;" horiz-adv-x="608" 
d="M218 580.5q-38 21.5 -55 60.5q-3 6 -3 14q0 13 9 22.5t23 9.5q20 0 29 -20q11 -23 32.5 -35.5t50.5 -12.5t50.5 12.5t32.5 35.5q9 20 29 20q14 0 23 -9.5t9 -22.5q0 -8 -3 -14q-17 -39 -55 -60.5t-86 -21.5t-86 21.5zM169 22q-58 34 -90 95t-32 138q0 78 32 139t90.5 94
t134.5 33t134 -33q59 -34 91 -94.5t32 -138.5t-32 -138q-33 -62 -91.5 -95t-133.5 -33q-77 0 -135 33zM383 93q39 20 62 61.5t23 101.5q0 63 -24 102q-22 38 -58.5 58t-81.5 20q-41 0 -79 -18q-39 -20 -62 -61t-23 -101q0 -64 24 -103q22 -39 58.5 -59t81.5 -20q41 0 79 19z
" />
    <glyph glyph-name="uni006F_uni0306_uni0358.liga" unicode="o&#x306;&#x358;" horiz-adv-x="608" 
d="M218 580.5q-38 21.5 -55 60.5q-3 6 -3 14q0 13 9 22.5t23 9.5q20 0 29 -20q11 -23 32.5 -35.5t50.5 -12.5t50.5 12.5t32.5 35.5q9 20 29 20q14 0 23 -9.5t9 -22.5q0 -8 -3 -14q-17 -39 -55 -60.5t-86 -21.5t-86 21.5zM524.5 499.5q-15.5 15.5 -15.5 36.5t15.5 36.5
t36.5 15.5t36.5 -15.5t15.5 -36.5t-15.5 -36.5t-36.5 -15.5t-36.5 15.5zM169 22q-58 34 -90 95t-32 138q0 78 32 139t90.5 94t134.5 33t134 -33q59 -34 91 -94.5t32 -138.5t-32 -138q-33 -62 -91.5 -95t-133.5 -33q-77 0 -135 33zM383 93q39 20 62 61.5t23 101.5
q0 63 -24 102q-22 38 -58.5 58t-81.5 20q-41 0 -79 -18q-39 -20 -62 -61t-23 -101q0 -64 24 -103q22 -39 58.5 -59t81.5 -20q41 0 79 19z" />
    <glyph glyph-name="o_tildecomb.liga" unicode="o&#x303;" horiz-adv-x="608" 
d="M157.5 597q-7.5 7 -7.5 17q0 35 25 65.5t60 30.5q19 0 36 -5.5t44 -18.5q26 -13 41.5 -18t32.5 -5q26 0 36 26q8 22 26 22q10 0 17 -6.5t7 -16.5q0 -37 -25 -66.5t-60 -29.5q-19 0 -36 5.5t-46 19.5q-26 13 -41 18t-31 5q-28 0 -38 -31q-6 -19 -24 -19q-9 0 -16.5 7z
M169 22q-58 34 -90 95t-32 138q0 78 32 139t90.5 94t134.5 33t134 -33q59 -34 91 -94.5t32 -138.5t-32 -138q-33 -62 -91.5 -95t-133.5 -33q-77 0 -135 33zM383 93q39 20 62 61.5t23 101.5q0 63 -24 102q-22 38 -58.5 58t-81.5 20q-41 0 -79 -18q-39 -20 -62 -61t-23 -101
q0 -64 24 -103q22 -39 58.5 -59t81.5 -20q41 0 79 19z" />
    <glyph glyph-name="uni006F_uni0304.liga" unicode="o&#x304;" horiz-adv-x="608" 
d="M165 598q-9 9 -9 22t9 22t22 9h234q13 0 22 -9t9 -22t-9 -22t-22 -9h-234q-13 0 -22 9zM169 22q-58 34 -90 95t-32 138q0 78 32 139t90.5 94t134.5 33t134 -33q59 -34 91 -94.5t32 -138.5t-32 -138q-33 -62 -91.5 -95t-133.5 -33q-77 0 -135 33zM383 93q39 20 62 61.5
t23 101.5q0 63 -24 102q-22 38 -58.5 58t-81.5 20q-41 0 -79 -18q-39 -20 -62 -61t-23 -101q0 -64 24 -103q22 -39 58.5 -59t81.5 -20q41 0 79 19z" />
    <glyph glyph-name="uni006F_uni0304_uni0358.liga" unicode="o&#x304;&#x358;" horiz-adv-x="608" 
d="M165 598q-9 9 -9 22t9 22t22 9h234q13 0 22 -9t9 -22t-9 -22t-22 -9h-234q-13 0 -22 9zM524.5 499.5q-15.5 15.5 -15.5 36.5t15.5 36.5t36.5 15.5t36.5 -15.5t15.5 -36.5t-15.5 -36.5t-36.5 -15.5t-36.5 15.5zM169 22q-58 34 -90 95t-32 138q0 78 32 139t90.5 94
t134.5 33t134 -33q59 -34 91 -94.5t32 -138.5t-32 -138q-33 -62 -91.5 -95t-133.5 -33q-77 0 -135 33zM383 93q39 20 62 61.5t23 101.5q0 63 -24 102q-22 38 -58.5 58t-81.5 20q-41 0 -79 -18q-39 -20 -62 -61t-23 -101q0 -64 24 -103q22 -39 58.5 -59t81.5 -20q41 0 79 19z
" />
    <glyph glyph-name="uni006F_uni030D.liga" unicode="o&#x30d;" horiz-adv-x="608" 
d="M276.5 750q9.5 10 27.5 10q17 0 27 -9.5t10 -27.5v-117q0 -17 -9.5 -27t-27.5 -10q-17 0 -27 9.5t-10 27.5v117q0 17 9.5 27zM169 22q-58 34 -90 95t-32 138q0 78 32 139t90.5 94t134.5 33t134 -33q59 -34 91 -94.5t32 -138.5t-32 -138q-33 -62 -91.5 -95t-133.5 -33
q-77 0 -135 33zM383 93q39 20 62 61.5t23 101.5q0 63 -24 102q-22 38 -58.5 58t-81.5 20q-41 0 -79 -18q-39 -20 -62 -61t-23 -101q0 -64 24 -103q22 -39 58.5 -59t81.5 -20q41 0 79 19z" />
    <glyph glyph-name="uni006F_uni030D_uni0358.liga" unicode="o&#x30d;&#x358;" horiz-adv-x="608" 
d="M276.5 750q9.5 10 27.5 10q17 0 27 -9.5t10 -27.5v-117q0 -17 -9.5 -27t-27.5 -10q-17 0 -27 9.5t-10 27.5v117q0 17 9.5 27zM524.5 499.5q-15.5 15.5 -15.5 36.5t15.5 36.5t36.5 15.5t36.5 -15.5t15.5 -36.5t-15.5 -36.5t-36.5 -15.5t-36.5 15.5zM169 22q-58 34 -90 95
t-32 138q0 78 32 139t90.5 94t134.5 33t134 -33q59 -34 91 -94.5t32 -138.5t-32 -138q-33 -62 -91.5 -95t-133.5 -33q-77 0 -135 33zM383 93q39 20 62 61.5t23 101.5q0 63 -24 102q-22 38 -58.5 58t-81.5 20q-41 0 -79 -18q-39 -20 -62 -61t-23 -101q0 -64 24 -103
q22 -39 58.5 -59t81.5 -20q41 0 79 19z" />
    <glyph glyph-name="uni006F_uni0358.liga" unicode="o&#x358;" horiz-adv-x="608" 
d="M524.5 499.5q-15.5 15.5 -15.5 36.5t15.5 36.5t36.5 15.5t36.5 -15.5t15.5 -36.5t-15.5 -36.5t-36.5 -15.5t-36.5 15.5zM169 22q-58 34 -90 95t-32 138q0 78 32 139t90.5 94t134.5 33t134 -33q59 -34 91 -94.5t32 -138.5t-32 -138q-33 -62 -91.5 -95t-133.5 -33
q-77 0 -135 33zM383 93q39 20 62 61.5t23 101.5q0 63 -24 102q-22 38 -58.5 58t-81.5 20q-41 0 -79 -18q-39 -20 -62 -61t-23 -101q0 -64 24 -103q22 -39 58.5 -59t81.5 -20q41 0 79 19z" />
    <glyph glyph-name="uni006F_uni0358_uni0300.liga" unicode="o&#x358;&#x300;" horiz-adv-x="608" 
d="M281 570l-69 82q-10 15 -10 26q0 18 10.5 28t27.5 10q24 0 34 -20l51 -89q7 -12 7 -20q0 -12 -7.5 -20t-20.5 -8q-14 0 -23 11zM524.5 499.5q-15.5 15.5 -15.5 36.5t15.5 36.5t36.5 15.5t36.5 -15.5t15.5 -36.5t-15.5 -36.5t-36.5 -15.5t-36.5 15.5zM169 22
q-58 34 -90 95t-32 138q0 78 32 139t90.5 94t134.5 33t134 -33q59 -34 91 -94.5t32 -138.5t-32 -138q-33 -62 -91.5 -95t-133.5 -33q-77 0 -135 33zM383 93q39 20 62 61.5t23 101.5q0 63 -24 102q-22 38 -58.5 58t-81.5 20q-41 0 -79 -18q-39 -20 -62 -61t-23 -101
q0 -64 24 -103q22 -39 58.5 -59t81.5 -20q41 0 79 19z" />
    <glyph glyph-name="uni006F_uni0358_uni0301.liga" unicode="o&#x358;&#x301;" horiz-adv-x="608" 
d="M284 566.5q-8 7.5 -8 20.5q0 8 7 20l51 89q10 20 34 20q16 0 27 -10.5t11 -27.5q0 -16 -10 -26l-69 -82q-9 -11 -23 -11q-12 0 -20 7.5zM524.5 499.5q-15.5 15.5 -15.5 36.5t15.5 36.5t36.5 15.5t36.5 -15.5t15.5 -36.5t-15.5 -36.5t-36.5 -15.5t-36.5 15.5zM169 22
q-58 34 -90 95t-32 138q0 78 32 139t90.5 94t134.5 33t134 -33q59 -34 91 -94.5t32 -138.5t-32 -138q-33 -62 -91.5 -95t-133.5 -33q-77 0 -135 33zM383 93q39 20 62 61.5t23 101.5q0 63 -24 102q-22 38 -58.5 58t-81.5 20q-41 0 -79 -18q-39 -20 -62 -61t-23 -101
q0 -64 24 -103q22 -39 58.5 -59t81.5 -20q41 0 79 19z" />
    <glyph glyph-name="uni006F_uni0358_uni030B.liga" unicode="o&#x358;&#x30b;" horiz-adv-x="608" 
d="M213 576q-8 7 -8 19q0 6 1 8l27 90q4 15 15 23.5t24 8.5q15 0 25.5 -9.5t10.5 -24.5q0 -11 -7 -25l-41 -79q-10 -18 -27 -18q-12 0 -20 7zM329 576q-8 7 -8 19q0 6 1 8l27 90q4 15 15 23.5t24 8.5q15 0 25.5 -9.5t10.5 -24.5q0 -11 -7 -25l-41 -79q-10 -18 -27 -18
q-12 0 -20 7zM524.5 499.5q-15.5 15.5 -15.5 36.5t15.5 36.5t36.5 15.5t36.5 -15.5t15.5 -36.5t-15.5 -36.5t-36.5 -15.5t-36.5 15.5zM169 22q-58 34 -90 95t-32 138q0 78 32 139t90.5 94t134.5 33t134 -33q59 -34 91 -94.5t32 -138.5t-32 -138q-33 -62 -91.5 -95
t-133.5 -33q-77 0 -135 33zM383 93q39 20 62 61.5t23 101.5q0 63 -24 102q-22 38 -58.5 58t-81.5 20q-41 0 -79 -18q-39 -20 -62 -61t-23 -101q0 -64 24 -103q22 -39 58.5 -59t81.5 -20q41 0 79 19z" />
    <glyph glyph-name="uni006F_uni0358_uni0302.liga" unicode="o&#x358;&#x302;" horiz-adv-x="608" 
d="M177.5 578.5q-9.5 9.5 -9.5 20.5t8 21l68 70q19 20 41 20h38q22 0 41 -20l68 -70q8 -10 8 -21t-9.5 -20.5t-21.5 -9.5q-11 0 -19 7l-78 66q-3 4 -8 4q-4 0 -8 -4l-78 -66q-8 -7 -19 -7q-12 0 -21.5 9.5zM524.5 499.5q-15.5 15.5 -15.5 36.5t15.5 36.5t36.5 15.5
t36.5 -15.5t15.5 -36.5t-15.5 -36.5t-36.5 -15.5t-36.5 15.5zM169 22q-58 34 -90 95t-32 138q0 78 32 139t90.5 94t134.5 33t134 -33q59 -34 91 -94.5t32 -138.5t-32 -138q-33 -62 -91.5 -95t-133.5 -33q-77 0 -135 33zM383 93q39 20 62 61.5t23 101.5q0 63 -24 102
q-22 38 -58.5 58t-81.5 20q-41 0 -79 -18q-39 -20 -62 -61t-23 -101q0 -64 24 -103q22 -39 58.5 -59t81.5 -20q41 0 79 19z" />
    <glyph glyph-name="uni006F_uni0358_uni030C.liga" unicode="o&#x358;&#x30c;" horiz-adv-x="608" 
d="M244 589l-68 70q-8 10 -8 21t9.5 20.5t21.5 9.5q11 0 19 -7l78 -66q6 -4 8 -4q4 0 8 4l78 66q8 7 19 7q12 0 21.5 -9.5t9.5 -20.5t-8 -21l-68 -70q-19 -20 -41 -20h-38q-22 0 -41 20zM524.5 499.5q-15.5 15.5 -15.5 36.5t15.5 36.5t36.5 15.5t36.5 -15.5t15.5 -36.5
t-15.5 -36.5t-36.5 -15.5t-36.5 15.5zM169 22q-58 34 -90 95t-32 138q0 78 32 139t90.5 94t134.5 33t134 -33q59 -34 91 -94.5t32 -138.5t-32 -138q-33 -62 -91.5 -95t-133.5 -33q-77 0 -135 33zM383 93q39 20 62 61.5t23 101.5q0 63 -24 102q-22 38 -58.5 58t-81.5 20
q-41 0 -79 -18q-39 -20 -62 -61t-23 -101q0 -64 24 -103q22 -39 58.5 -59t81.5 -20q41 0 79 19z" />
    <glyph glyph-name="uni006F_uni0358_uni0306.liga" unicode="o&#x358;&#x306;" horiz-adv-x="608" 
d="M218 580.5q-38 21.5 -55 60.5q-3 6 -3 14q0 13 9 22.5t23 9.5q20 0 29 -20q11 -23 32.5 -35.5t50.5 -12.5t50.5 12.5t32.5 35.5q9 20 29 20q14 0 23 -9.5t9 -22.5q0 -8 -3 -14q-17 -39 -55 -60.5t-86 -21.5t-86 21.5zM524.5 499.5q-15.5 15.5 -15.5 36.5t15.5 36.5
t36.5 15.5t36.5 -15.5t15.5 -36.5t-15.5 -36.5t-36.5 -15.5t-36.5 15.5zM169 22q-58 34 -90 95t-32 138q0 78 32 139t90.5 94t134.5 33t134 -33q59 -34 91 -94.5t32 -138.5t-32 -138q-33 -62 -91.5 -95t-133.5 -33q-77 0 -135 33zM383 93q39 20 62 61.5t23 101.5
q0 63 -24 102q-22 38 -58.5 58t-81.5 20q-41 0 -79 -18q-39 -20 -62 -61t-23 -101q0 -64 24 -103q22 -39 58.5 -59t81.5 -20q41 0 79 19z" />
    <glyph glyph-name="uni006F_uni0358_uni0304.liga" unicode="o&#x358;&#x304;" horiz-adv-x="608" 
d="M165 598q-9 9 -9 22t9 22t22 9h234q13 0 22 -9t9 -22t-9 -22t-22 -9h-234q-13 0 -22 9zM524.5 499.5q-15.5 15.5 -15.5 36.5t15.5 36.5t36.5 15.5t36.5 -15.5t15.5 -36.5t-15.5 -36.5t-36.5 -15.5t-36.5 15.5zM169 22q-58 34 -90 95t-32 138q0 78 32 139t90.5 94
t134.5 33t134 -33q59 -34 91 -94.5t32 -138.5t-32 -138q-33 -62 -91.5 -95t-133.5 -33q-77 0 -135 33zM383 93q39 20 62 61.5t23 101.5q0 63 -24 102q-22 38 -58.5 58t-81.5 20q-41 0 -79 -18q-39 -20 -62 -61t-23 -101q0 -64 24 -103q22 -39 58.5 -59t81.5 -20q41 0 79 19z
" />
    <glyph glyph-name="uni006F_uni0358_uni030D.liga" unicode="o&#x358;&#x30d;" horiz-adv-x="608" 
d="M276.5 750q9.5 10 27.5 10q17 0 27 -9.5t10 -27.5v-117q0 -17 -9.5 -27t-27.5 -10q-17 0 -27 9.5t-10 27.5v117q0 17 9.5 27zM524.5 499.5q-15.5 15.5 -15.5 36.5t15.5 36.5t36.5 15.5t36.5 -15.5t15.5 -36.5t-15.5 -36.5t-36.5 -15.5t-36.5 15.5zM169 22q-58 34 -90 95
t-32 138q0 78 32 139t90.5 94t134.5 33t134 -33q59 -34 91 -94.5t32 -138.5t-32 -138q-33 -62 -91.5 -95t-133.5 -33q-77 0 -135 33zM383 93q39 20 62 61.5t23 101.5q0 63 -24 102q-22 38 -58.5 58t-81.5 20q-41 0 -79 -18q-39 -20 -62 -61t-23 -101q0 -64 24 -103
q22 -39 58.5 -59t81.5 -20q41 0 79 19z" />
    <glyph glyph-name="uni0075_uni030B.liga" unicode="u&#x30b;" horiz-adv-x="609" 
d="M211 556q-8 7 -8 19q0 6 1 8l27 90q4 15 15 23.5t24 8.5q15 0 25.5 -9.5t10.5 -24.5q0 -11 -7 -25l-41 -79q-10 -18 -27 -18q-12 0 -20 7zM327 556q-8 7 -8 19q0 6 1 8l27 90q4 15 15 23.5t24 8.5q15 0 25.5 -9.5t10.5 -24.5q0 -11 -7 -25l-41 -79q-10 -18 -27 -18
q-12 0 -20 7zM157 15q-40 26 -62 71t-22 100v284q0 19 14 32.5t33 13.5t32.5 -13.5t13.5 -32.5v-274q0 -121 109 -121q48 0 86.5 24t76.5 71v300q0 19 14 32.5t33 13.5t32.5 -13.5t13.5 -32.5v-429q0 -19 -13.5 -33t-32.5 -14t-33 14t-14 33v38q-41 -44 -85 -67t-100 -23
q-54 0 -96 26z" />
    <glyph glyph-name="u_tildecomb.liga" unicode="u&#x303;" horiz-adv-x="609" 
d="M155.5 577q-7.5 7 -7.5 17q0 35 25 65.5t60 30.5q19 0 36 -5.5t44 -18.5q26 -13 41.5 -18t32.5 -5q26 0 36 26q8 22 26 22q10 0 17 -6.5t7 -16.5q0 -37 -25 -66.5t-60 -29.5q-19 0 -36 5.5t-46 19.5q-26 13 -41 18t-31 5q-28 0 -38 -31q-6 -19 -24 -19q-9 0 -16.5 7z
M157 15q-40 26 -62 71t-22 100v284q0 19 14 32.5t33 13.5t32.5 -13.5t13.5 -32.5v-274q0 -121 109 -121q48 0 86.5 24t76.5 71v300q0 19 14 32.5t33 13.5t32.5 -13.5t13.5 -32.5v-429q0 -19 -13.5 -33t-32.5 -14t-33 14t-14 33v38q-41 -44 -85 -67t-100 -23q-54 0 -96 26z
" />
    <glyph glyph-name="uni0075_uni030D.liga" unicode="u&#x30d;" horiz-adv-x="609" 
d="M274.5 730q9.5 10 27.5 10q17 0 27 -9.5t10 -27.5v-117q0 -17 -9.5 -27t-27.5 -10q-17 0 -27 9.5t-10 27.5v117q0 17 9.5 27zM157 15q-40 26 -62 71t-22 100v284q0 19 14 32.5t33 13.5t32.5 -13.5t13.5 -32.5v-274q0 -121 109 -121q48 0 86.5 24t76.5 71v300
q0 19 14 32.5t33 13.5t32.5 -13.5t13.5 -32.5v-429q0 -19 -13.5 -33t-32.5 -14t-33 14t-14 33v38q-41 -44 -85 -67t-100 -23q-54 0 -96 26z" />
    <glyph glyph-name="f_f" unicode="ff" horiz-adv-x="774" 
d="M129.5 7.5q-13.5 13.5 -13.5 32.5v391h-58q-16 0 -28 12t-12 28q0 17 12 28.5t28 11.5h58v57q0 61 22 99q20 37 54.5 55.5t74.5 18.5q45 0 87 -20q24 -14 24 -36q0 -15 -11.5 -27t-26.5 -12q-11 0 -23 3l-27 3q-44 0 -62.5 -20t-18.5 -67v-54h301v57q0 61 22 99
q20 37 54.5 55.5t74.5 18.5q45 0 87 -20q24 -14 24 -36q0 -15 -11.5 -27t-26.5 -12q-11 0 -23 3l-27 3q-44 0 -62.5 -20t-18.5 -67v-54h124q17 0 28.5 -11.5t11.5 -28.5q0 -16 -11.5 -28t-28.5 -12h-124v-391q0 -19 -14 -32.5t-33 -13.5t-32.5 13.5t-13.5 32.5v391h-301
v-391q0 -19 -14 -32.5t-33 -13.5t-32.5 13.5z" />
    <glyph glyph-name="f_f_i" unicode="ffi" horiz-adv-x="1031" 
d="M129.5 7.5q-13.5 13.5 -13.5 32.5v391h-58q-16 0 -28 12t-12 28q0 17 12 28.5t28 11.5h58v57q0 61 22 99q20 37 54.5 55.5t74.5 18.5q45 0 87 -20q24 -14 24 -36q0 -15 -11.5 -27t-26.5 -12q-11 0 -23 3l-27 3q-44 0 -62.5 -20t-18.5 -67v-54h301v57q0 61 22 99
q20 37 54.5 55.5t74.5 18.5q45 0 87 -20q24 -14 24 -36q0 -15 -11.5 -27t-26.5 -12q-11 0 -23 3l-27 3q-44 0 -62.5 -20t-18.5 -67v-54h303q20 0 33.5 -13.5t13.5 -33.5v-424q0 -19 -14 -32.5t-33 -13.5t-32.5 13.5t-13.5 32.5v391h-257v-391q0 -19 -14 -32.5t-33 -13.5
t-32.5 13.5t-13.5 32.5v391h-301v-391q0 -19 -14 -32.5t-33 -13.5t-32.5 13.5zM867.5 628.5q-15.5 15.5 -15.5 36.5v4q0 21 15.5 36.5t36.5 15.5h6q21 0 36.5 -15.5t15.5 -36.5v-4q0 -21 -15.5 -36.5t-36.5 -15.5h-6q-21 0 -36.5 15.5z" />
    <glyph glyph-name="f_f_l" unicode="ffl" horiz-adv-x="1030" 
d="M129.5 7.5q-13.5 13.5 -13.5 32.5v391h-58q-16 0 -28 12t-12 28q0 17 12 28.5t28 11.5h58v57q0 61 22 99q20 37 54.5 55.5t74.5 18.5q45 0 87 -20q24 -14 24 -36q0 -15 -11.5 -27t-26.5 -12q-11 0 -23 3l-27 3q-44 0 -62.5 -20t-18.5 -67v-54h301v57q0 61 22 99
q20 37 54.5 55.5t74.5 18.5q45 0 87 -20q24 -14 24 -36q0 -15 -11.5 -27t-26.5 -12q-11 0 -23 3l-27 3q-44 0 -62.5 -20t-18.5 -67v-54h124q17 0 28.5 -11.5t11.5 -28.5q0 -16 -11.5 -28t-28.5 -12h-124v-391q0 -19 -14 -32.5t-33 -13.5t-32.5 13.5t-13.5 32.5v391h-301
v-391q0 -19 -14 -32.5t-33 -13.5t-32.5 13.5zM872.5 7.5q-13.5 13.5 -13.5 32.5v649q0 19 13.5 33t32.5 14q20 0 33.5 -13.5t13.5 -33.5v-649q0 -19 -14 -32.5t-33 -13.5t-32.5 13.5z" />
    <glyph glyph-name="fi" unicode="fi" horiz-adv-x="637" 
d="M129.5 7.5q-13.5 13.5 -13.5 32.5v391h-58q-16 0 -28 12t-12 28q0 17 12 28.5t28 11.5h58v57q0 61 22 99q20 37 54.5 55.5t74.5 18.5q45 0 87 -20q24 -14 24 -36q0 -15 -11.5 -27t-26.5 -12q-11 0 -23 3l-27 3q-44 0 -62.5 -20t-18.5 -67v-54h306q19 -2 31.5 -15
t12.5 -32v-424q0 -19 -14 -32.5t-33 -13.5t-32.5 13.5t-13.5 32.5v391h-257v-391q0 -19 -14 -32.5t-33 -13.5t-32.5 13.5zM473.5 628.5q-15.5 15.5 -15.5 36.5v4q0 21 15.5 36.5t36.5 15.5h6q21 0 36.5 -15.5t15.5 -36.5v-4q0 -21 -15.5 -36.5t-36.5 -15.5h-6
q-21 0 -36.5 15.5z" />
    <glyph glyph-name="fl" unicode="fl" horiz-adv-x="636" 
d="M129.5 7.5q-13.5 13.5 -13.5 32.5v391h-58q-16 0 -28 12t-12 28q0 17 12 28.5t28 11.5h58v57q0 61 22 99q20 37 54.5 55.5t74.5 18.5q45 0 87 -20q24 -14 24 -36q0 -15 -11.5 -27t-26.5 -12q-11 0 -23 3l-27 3q-44 0 -62.5 -20t-18.5 -67v-54h124q17 0 28.5 -11.5
t11.5 -28.5q0 -16 -11.5 -28t-28.5 -12h-124v-391q0 -19 -14 -32.5t-33 -13.5t-32.5 13.5zM478.5 7.5q-13.5 13.5 -13.5 32.5v649q0 19 13.5 33t32.5 14q20 0 33.5 -13.5t13.5 -33.5v-649q0 -19 -14 -32.5t-33 -13.5t-32.5 13.5z" />
    <glyph glyph-name="_z_j_b_y.liga" unicode="&#x518d;&#x200d;&#x898b;" 
d="M956.5 109.5q11.5 -13.5 11.5 -38.5q0 -106 -44 -130q-31 -17 -147 -19h-34q-51 0 -104 3q-33 2 -51 21t-18 48v126h-148q-15 -109 -110 -161q-96 -52 -216 -52q-41 0 -41 39q0 36 50 39q214 17 230 135h-86q-50 -4 -73 19t-19 73v57h-56q-38 0 -38 37q0 36 38 36h55v202
q-8 99 93 99h217v56h-351q-45 0 -45 37t45 37h794q46 0 46 -37t-46 -37h-363v-56h222q105 4 97 -99v-202h49q41 0 41 -36q0 -37 -41 -37h-52v-57q4 -50 -19 -73t-73 -19h-120v-91q0 -10 6 -17t20 -11q13 -4 64 -4h41q57 0 77 11q21 8 21 52v22q0 18 11 29.5t33 11.5
t33.5 -13.5zM237 487h229v85h-190q-37 -1 -39 -40v-45zM546 572v-85h237v45q-2 39 -39 40h-198zM237 416v-74h229v74h-229zM546 342h237v74h-237v-74zM751 191q15 0 22.5 8t7.5 23v47h-544v-47q0 -14 8 -22.5t22 -8.5h484z" />
    <glyph glyph-name=".notdef" horiz-adv-x="600" 
 />
    <glyph glyph-name="nonmarkingreturn" horiz-adv-x="260" 
 />
    <glyph glyph-name="space" unicode=" " horiz-adv-x="300" 
 />
    <glyph glyph-name="A" unicode="A" horiz-adv-x="746" 
d="M62 7.5q-13 13.5 -13 32.5q0 7 5 20l255 602q9 20 24 31t35 11h10q20 0 35 -11t24 -31l255 -602q5 -13 5 -20q0 -19 -13 -32.5t-33 -13.5q-15 0 -26.5 7.5t-17.5 21.5l-65 155h-338l-65 -155q-6 -14 -17.5 -21.5t-26.5 -7.5q-20 0 -33 13.5zM373 573q-5 0 -8 -7
l-126 -303h268l-126 303q-3 7 -8 7z" />
    <glyph glyph-name="uni0041_uni030B" horiz-adv-x="746" 
d="M294 747q-8 7 -8 19q0 6 1 8l27 90q4 15 15 23.5t24 8.5q15 0 25.5 -9.5t10.5 -24.5q0 -11 -7 -25l-41 -79q-10 -18 -27 -18q-12 0 -20 7zM410 747q-8 7 -8 19q0 6 1 8l27 90q4 15 15 23.5t24 8.5q15 0 25.5 -9.5t10.5 -24.5q0 -11 -7 -25l-41 -79q-10 -18 -27 -18
q-12 0 -20 7zM62 7.5q-13 13.5 -13 32.5q0 7 5 20l255 602q9 20 24 31t35 11h10q20 0 35 -11t24 -31l255 -602q5 -13 5 -20q0 -19 -13 -32.5t-33 -13.5q-15 0 -26.5 7.5t-17.5 21.5l-65 155h-338l-65 -155q-6 -14 -17.5 -21.5t-26.5 -7.5q-20 0 -33 13.5zM373 573
q-5 0 -8 -7l-126 -303h268l-126 303q-3 7 -8 7z" />
    <glyph glyph-name="A_tildecomb" horiz-adv-x="746" 
d="M227.5 753q-7.5 7 -7.5 17q0 35 25 65.5t60 30.5q19 0 36 -5.5t44 -18.5q26 -13 41.5 -18t32.5 -5q13 0 21.5 6t14.5 20q8 22 26 22q10 0 16.5 -6.5t7.5 -16.5q0 -37 -25 -66.5t-60 -29.5q-19 0 -35 5.5t-47 19.5q-26 13 -41 18t-31 5q-25 0 -38 -31q-6 -19 -24 -19
q-9 0 -16.5 7zM62 7.5q-13 13.5 -13 32.5q0 7 5 20l255 602q9 20 24 31t35 11h10q20 0 35 -11t24 -31l255 -602q5 -13 5 -20q0 -19 -13 -32.5t-33 -13.5q-15 0 -26.5 7.5t-17.5 21.5l-65 155h-338l-65 -155q-6 -14 -17.5 -21.5t-26.5 -7.5q-20 0 -33 13.5zM373 573
q-5 0 -8 -7l-126 -303h268l-126 303q-3 7 -8 7z" />
    <glyph glyph-name="uni0041_uni030D" horiz-adv-x="746" 
d="M346.5 933q9.5 10 27.5 10q17 0 27 -9.5t10 -27.5v-117q0 -17 -9.5 -27t-27.5 -10q-17 0 -27 9.5t-10 27.5v117q0 17 9.5 27zM62 7.5q-13 13.5 -13 32.5q0 7 5 20l255 602q9 20 24 31t35 11h10q20 0 35 -11t24 -31l255 -602q5 -13 5 -20q0 -19 -13 -32.5t-33 -13.5
q-15 0 -26.5 7.5t-17.5 21.5l-65 155h-338l-65 -155q-6 -14 -17.5 -21.5t-26.5 -7.5q-20 0 -33 13.5zM373 573q-5 0 -8 -7l-126 -303h268l-126 303q-3 7 -8 7z" />
    <glyph glyph-name="Aacute" unicode="&#xc1;" horiz-adv-x="746" 
d="M353 745.5q-8 7.5 -8 20.5q0 8 7 20l51 89q10 20 34 20q16 0 27 -10.5t11 -27.5q0 -16 -10 -26l-69 -82q-9 -11 -23 -11q-12 0 -20 7.5zM62 7.5q-13 13.5 -13 32.5q0 7 5 20l255 602q9 20 24 31t35 11h10q20 0 35 -11t24 -31l255 -602q5 -13 5 -20q0 -19 -13 -32.5
t-33 -13.5q-15 0 -26.5 7.5t-17.5 21.5l-65 155h-338l-65 -155q-6 -14 -17.5 -21.5t-26.5 -7.5q-20 0 -33 13.5zM373 573q-5 0 -8 -7l-126 -303h268l-126 303q-3 7 -8 7z" />
    <glyph glyph-name="Abreve" unicode="&#x102;" horiz-adv-x="746" 
d="M288.5 769q-37.5 22 -56.5 60q-3 6 -3 14q0 13 9 22.5t23 9.5q20 0 29 -20q11 -23 32.5 -35.5t50.5 -12.5t50.5 12.5t32.5 35.5q9 20 29 20q14 0 23 -9.5t9 -22.5q0 -8 -3 -14q-19 -38 -56.5 -60t-84.5 -22t-84.5 22zM62 7.5q-13 13.5 -13 32.5q0 7 5 20l255 602
q9 20 24 31t35 11h10q20 0 35 -11t24 -31l255 -602q5 -13 5 -20q0 -19 -13 -32.5t-33 -13.5q-15 0 -26.5 7.5t-17.5 21.5l-65 155h-338l-65 -155q-6 -14 -17.5 -21.5t-26.5 -7.5q-20 0 -33 13.5zM373 573q-5 0 -8 -7l-126 -303h268l-126 303q-3 7 -8 7z" />
    <glyph glyph-name="uni1EAE" unicode="&#x1eae;" horiz-adv-x="746" 
d="M355.5 841q-6.5 6 -6.5 15q0 8 5 20l36 61q14 25 33 25q15 0 25 -9t10 -24q0 -14 -13 -29l-51 -55q-12 -10 -23 -10q-9 0 -15.5 6zM287.5 766.5q-37.5 19.5 -55.5 53.5q-3 6 -3 13q0 12 8.5 20t20.5 8q13 0 25 -17q12 -21 36 -33t54 -12q65 0 90 45q12 17 25 17
q12 0 20.5 -8t8.5 -20q0 -7 -3 -13q-18 -34 -55.5 -53.5t-85.5 -19.5t-85.5 19.5zM62 7.5q-13 13.5 -13 32.5q0 7 5 20l255 602q9 20 24 31t35 11h10q20 0 35 -11t24 -31l255 -602q5 -13 5 -20q0 -19 -13 -32.5t-33 -13.5q-15 0 -26.5 7.5t-17.5 21.5l-65 155h-338l-65 -155
q-6 -14 -17.5 -21.5t-26.5 -7.5q-20 0 -33 13.5zM373 573q-5 0 -8 -7l-126 -303h268l-126 303q-3 7 -8 7z" />
    <glyph glyph-name="uni1EB6" unicode="&#x1eb6;" horiz-adv-x="746" 
d="M288.5 769q-37.5 22 -56.5 60q-3 6 -3 14q0 13 9 22.5t23 9.5q20 0 29 -20q11 -23 32.5 -35.5t50.5 -12.5t50.5 12.5t32.5 35.5q9 20 29 20q14 0 23 -9.5t9 -22.5q0 -8 -3 -14q-19 -38 -56.5 -60t-84.5 -22t-84.5 22zM62 7.5q-13 13.5 -13 32.5q0 7 5 20l255 602
q9 20 24 31t35 11h10q20 0 35 -11t24 -31l255 -602q5 -13 5 -20q0 -19 -13 -32.5t-33 -13.5q-15 0 -26.5 7.5t-17.5 21.5l-65 155h-338l-65 -155q-6 -14 -17.5 -21.5t-26.5 -7.5q-20 0 -33 13.5zM373 573q-5 0 -8 -7l-126 -303h268l-126 303q-3 7 -8 7zM336.5 -151.5
q-15.5 15.5 -15.5 36.5t15.5 36.5t36.5 15.5t36.5 -15.5t15.5 -36.5t-15.5 -36.5t-36.5 -15.5t-36.5 15.5z" />
    <glyph glyph-name="uni1EB0" unicode="&#x1eb0;" horiz-adv-x="746" 
d="M352 845l-51 55q-13 15 -13 29q0 15 10 24t25 9q19 0 33 -25l36 -61q5 -12 5 -20q0 -9 -6.5 -15t-15.5 -6q-11 0 -23 10zM287.5 766.5q-37.5 19.5 -55.5 53.5q-3 6 -3 13q0 12 8.5 20t20.5 8q13 0 25 -17q12 -21 36 -33t54 -12q65 0 90 45q12 17 25 17q12 0 20.5 -8
t8.5 -20q0 -7 -3 -13q-18 -34 -55.5 -53.5t-85.5 -19.5t-85.5 19.5zM62 7.5q-13 13.5 -13 32.5q0 7 5 20l255 602q9 20 24 31t35 11h10q20 0 35 -11t24 -31l255 -602q5 -13 5 -20q0 -19 -13 -32.5t-33 -13.5q-15 0 -26.5 7.5t-17.5 21.5l-65 155h-338l-65 -155
q-6 -14 -17.5 -21.5t-26.5 -7.5q-20 0 -33 13.5zM373 573q-5 0 -8 -7l-126 -303h268l-126 303q-3 7 -8 7z" />
    <glyph glyph-name="uni1EB2" unicode="&#x1eb2;" horiz-adv-x="746" 
d="M349 841.5q-7 6.5 -7 18.5q0 16 9.5 28.5t29.5 26.5l21 18q6 6 6 13q0 18 -30 18q-26 0 -44 -7l-6 -3q-15 -5 -17 -5q-9 0 -15.5 6.5t-6.5 15.5q0 14 11 22q32 20 78 20q41 0 62.5 -17t21.5 -49q0 -21 -9 -34.5t-30 -29.5q-25 -17 -31 -32q-6 -16 -26 -16q-10 0 -17 6.5z
M287.5 766.5q-37.5 19.5 -55.5 53.5q-3 6 -3 13q0 12 8.5 20t20.5 8q13 0 25 -17q12 -21 36 -33t54 -12q65 0 90 45q12 17 25 17q12 0 20.5 -8t8.5 -20q0 -7 -3 -13q-18 -34 -55.5 -53.5t-85.5 -19.5t-85.5 19.5zM62 7.5q-13 13.5 -13 32.5q0 7 5 20l255 602q9 20 24 31
t35 11h10q20 0 35 -11t24 -31l255 -602q5 -13 5 -20q0 -19 -13 -32.5t-33 -13.5q-15 0 -26.5 7.5t-17.5 21.5l-65 155h-338l-65 -155q-6 -14 -17.5 -21.5t-26.5 -7.5q-20 0 -33 13.5zM373 573q-5 0 -8 -7l-126 -303h268l-126 303q-3 7 -8 7z" />
    <glyph glyph-name="uni1EB4" unicode="&#x1eb4;" horiz-adv-x="746" 
d="M239 881q-6 5 -6 12q0 29 22 51t56 22q14 0 27.5 -3t36.5 -11l4 -1q30 -12 56 -12q15 0 24 4.5t16 14.5q3 6 7 8.5t12 2.5q19 0 20 -17q0 -28 -23.5 -50.5t-55.5 -22.5q-15 0 -28.5 3t-36.5 12q-38 14 -58 14q-32 0 -40 -19q-1 -6 -7 -9.5t-12 -3.5q-8 0 -14 5z
M287.5 766.5q-37.5 19.5 -55.5 53.5q-3 6 -3 13q0 12 8.5 20t20.5 8q13 0 25 -17q12 -21 36 -33t54 -12q65 0 90 45q12 17 25 17q12 0 20.5 -8t8.5 -20q0 -7 -3 -13q-18 -34 -55.5 -53.5t-85.5 -19.5t-85.5 19.5zM62 7.5q-13 13.5 -13 32.5q0 7 5 20l255 602q9 20 24 31
t35 11h10q20 0 35 -11t24 -31l255 -602q5 -13 5 -20q0 -19 -13 -32.5t-33 -13.5q-15 0 -26.5 7.5t-17.5 21.5l-65 155h-338l-65 -155q-6 -14 -17.5 -21.5t-26.5 -7.5q-20 0 -33 13.5zM373 573q-5 0 -8 -7l-126 -303h268l-126 303q-3 7 -8 7z" />
    <glyph glyph-name="uni01CD" unicode="&#x1cd;" horiz-adv-x="746" 
d="M314 772l-68 70q-8 10 -8 21t9.5 20.5t21.5 9.5q11 0 19 -7l78 -66q6 -4 8 -4q4 0 8 4l78 66q8 7 19 7q12 0 21.5 -9.5t9.5 -20.5t-8 -21l-68 -70q-19 -20 -41 -20h-38q-22 0 -41 20zM62 7.5q-13 13.5 -13 32.5q0 7 5 20l255 602q9 20 24 31t35 11h10q20 0 35 -11t24 -31
l255 -602q5 -13 5 -20q0 -19 -13 -32.5t-33 -13.5q-15 0 -26.5 7.5t-17.5 21.5l-65 155h-338l-65 -155q-6 -14 -17.5 -21.5t-26.5 -7.5q-20 0 -33 13.5zM373 573q-5 0 -8 -7l-126 -303h268l-126 303q-3 7 -8 7z" />
    <glyph glyph-name="Acircumflex" unicode="&#xc2;" horiz-adv-x="746" 
d="M246.5 746.5q-9.5 9.5 -9.5 20.5t8 21l68 70q19 20 41 20h38q22 0 41 -20l68 -70q8 -10 8 -21t-9.5 -20.5t-21.5 -9.5q-11 0 -19 7l-78 66q-3 4 -8 4q-4 0 -8 -4l-78 -66q-8 -7 -19 -7q-12 0 -21.5 9.5zM62 7.5q-13 13.5 -13 32.5q0 7 5 20l255 602q9 20 24 31t35 11h10
q20 0 35 -11t24 -31l255 -602q5 -13 5 -20q0 -19 -13 -32.5t-33 -13.5q-15 0 -26.5 7.5t-17.5 21.5l-65 155h-338l-65 -155q-6 -14 -17.5 -21.5t-26.5 -7.5q-20 0 -33 13.5zM373 573q-5 0 -8 -7l-126 -303h268l-126 303q-3 7 -8 7z" />
    <glyph glyph-name="uni1EA4" unicode="&#x1ea4;" horiz-adv-x="746" 
d="M461.5 841q-6.5 6 -6.5 15q0 8 5 20l36 61q14 25 33 25q15 0 25 -9t10 -24q0 -14 -13 -29l-51 -55q-12 -10 -23 -10q-9 0 -15.5 6zM247 745.5q-10 8.5 -10 18.5q0 12 8 20l68 58q13 10 21 14t20 4h38q12 0 20 -4t21 -14l68 -58q8 -8 8 -20q0 -10 -10 -18.5t-21 -8.5
q-10 0 -19 6l-78 62q-3 4 -8 4q-4 0 -8 -4l-78 -62q-9 -6 -19 -6q-11 0 -21 8.5zM62 7.5q-13 13.5 -13 32.5q0 7 5 20l255 602q9 20 24 31t35 11h10q20 0 35 -11t24 -31l255 -602q5 -13 5 -20q0 -19 -13 -32.5t-33 -13.5q-15 0 -26.5 7.5t-17.5 21.5l-65 155h-338l-65 -155
q-6 -14 -17.5 -21.5t-26.5 -7.5q-20 0 -33 13.5zM373 573q-5 0 -8 -7l-126 -303h268l-126 303q-3 7 -8 7z" />
    <glyph glyph-name="uni1EAC" unicode="&#x1eac;" horiz-adv-x="746" 
d="M246.5 746.5q-9.5 9.5 -9.5 20.5t8 21l68 70q19 20 41 20h38q22 0 41 -20l68 -70q8 -10 8 -21t-9.5 -20.5t-21.5 -9.5q-11 0 -19 7l-78 66q-3 4 -8 4q-4 0 -8 -4l-78 -66q-8 -7 -19 -7q-12 0 -21.5 9.5zM62 7.5q-13 13.5 -13 32.5q0 7 5 20l255 602q9 20 24 31t35 11h10
q20 0 35 -11t24 -31l255 -602q5 -13 5 -20q0 -19 -13 -32.5t-33 -13.5q-15 0 -26.5 7.5t-17.5 21.5l-65 155h-338l-65 -155q-6 -14 -17.5 -21.5t-26.5 -7.5q-20 0 -33 13.5zM373 573q-5 0 -8 -7l-126 -303h268l-126 303q-3 7 -8 7zM336.5 -151.5q-15.5 15.5 -15.5 36.5
t15.5 36.5t36.5 15.5t36.5 -15.5t15.5 -36.5t-15.5 -36.5t-36.5 -15.5t-36.5 15.5z" />
    <glyph glyph-name="uni1EA6" unicode="&#x1ea6;" horiz-adv-x="746" 
d="M459 845l-51 55q-13 15 -13 29q0 15 10 24t25 9q19 0 33 -25l36 -61q5 -12 5 -20q0 -9 -6.5 -15t-15.5 -6q-11 0 -23 10zM247 745.5q-10 8.5 -10 18.5q0 12 8 20l68 58q13 10 21 14t20 4h38q12 0 20 -4t21 -14l68 -58q8 -8 8 -20q0 -10 -10 -18.5t-21 -8.5q-10 0 -19 6
l-78 62q-3 4 -8 4q-4 0 -8 -4l-78 -62q-9 -6 -19 -6q-11 0 -21 8.5zM62 7.5q-13 13.5 -13 32.5q0 7 5 20l255 602q9 20 24 31t35 11h10q20 0 35 -11t24 -31l255 -602q5 -13 5 -20q0 -19 -13 -32.5t-33 -13.5q-15 0 -26.5 7.5t-17.5 21.5l-65 155h-338l-65 -155
q-6 -14 -17.5 -21.5t-26.5 -7.5q-20 0 -33 13.5zM373 573q-5 0 -8 -7l-126 -303h268l-126 303q-3 7 -8 7z" />
    <glyph glyph-name="uni1EA8" unicode="&#x1ea8;" horiz-adv-x="746" 
d="M460 844.5q-7 6.5 -7 17.5q0 14 9.5 25t31.5 24q6 4 9 7q6 4 11 8t5 9q0 17 -30 17q-20 0 -35 -7t-22 -7q-9 0 -15.5 6t-6.5 15q0 13 11 21q28 17 69 17q81 0 81 -61q0 -19 -9 -31t-30 -25q-11 -7 -18.5 -13.5t-10.5 -13.5q-7 -15 -26 -15q-10 0 -17 6.5zM247 745.5
q-10 8.5 -10 18.5q0 12 8 20l68 58q13 10 21 14t20 4h38q12 0 20 -4t21 -14l68 -58q8 -8 8 -20q0 -10 -10 -18.5t-21 -8.5q-10 0 -19 6l-78 62q-3 4 -8 4q-4 0 -8 -4l-78 -62q-9 -6 -19 -6q-11 0 -21 8.5zM62 7.5q-13 13.5 -13 32.5q0 7 5 20l255 602q9 20 24 31t35 11h10
q20 0 35 -11t24 -31l255 -602q5 -13 5 -20q0 -19 -13 -32.5t-33 -13.5q-15 0 -26.5 7.5t-17.5 21.5l-65 155h-338l-65 -155q-6 -14 -17.5 -21.5t-26.5 -7.5q-20 0 -33 13.5zM373 573q-5 0 -8 -7l-126 -303h268l-126 303q-3 7 -8 7z" />
    <glyph glyph-name="uni1EAA" unicode="&#x1eaa;" horiz-adv-x="746" 
d="M239 881q-6 5 -6 12q0 29 22 51t56 22q14 0 27.5 -3t36.5 -11l4 -1q30 -12 56 -12q15 0 24 4.5t16 14.5q3 6 7 8.5t12 2.5q19 0 20 -17q0 -28 -23.5 -50.5t-55.5 -22.5q-15 0 -28.5 3t-36.5 12q-38 14 -58 14q-32 0 -40 -19q-1 -6 -7 -9.5t-12 -3.5q-8 0 -14 5z
M247 745.5q-10 8.5 -10 18.5q0 12 8 20l68 58q13 10 21 14t20 4h38q12 0 20 -4t21 -14l68 -58q8 -8 8 -20q0 -10 -10 -18.5t-21 -8.5q-10 0 -19 6l-78 62q-3 4 -8 4q-4 0 -8 -4l-78 -62q-9 -6 -19 -6q-11 0 -21 8.5zM62 7.5q-13 13.5 -13 32.5q0 7 5 20l255 602q9 20 24 31
t35 11h10q20 0 35 -11t24 -31l255 -602q5 -13 5 -20q0 -19 -13 -32.5t-33 -13.5q-15 0 -26.5 7.5t-17.5 21.5l-65 155h-338l-65 -155q-6 -14 -17.5 -21.5t-26.5 -7.5q-20 0 -33 13.5zM373 573q-5 0 -8 -7l-126 -303h268l-126 303q-3 7 -8 7z" />
    <glyph glyph-name="uni0200" unicode="&#x200;" horiz-adv-x="746" 
d="M276 745.5q-8 7.5 -8 20.5q0 8 7 20l51 89q10 20 34 20q16 0 27 -10.5t11 -27.5q0 -16 -10 -26l-69 -82q-9 -11 -23 -11q-12 0 -20 7.5zM430 745.5q-8 7.5 -8 20.5q0 8 7 20l51 89q10 20 34 20q16 0 27 -10.5t11 -27.5q0 -16 -10 -26l-69 -82q-9 -11 -23 -11
q-12 0 -20 7.5zM62 7.5q-13 13.5 -13 32.5q0 7 5 20l255 602q9 20 24 31t35 11h10q20 0 35 -11t24 -31l255 -602q5 -13 5 -20q0 -19 -13 -32.5t-33 -13.5q-15 0 -26.5 7.5t-17.5 21.5l-65 155h-338l-65 -155q-6 -14 -17.5 -21.5t-26.5 -7.5q-20 0 -33 13.5zM373 573
q-5 0 -8 -7l-126 -303h268l-126 303q-3 7 -8 7z" />
    <glyph glyph-name="Adieresis" unicode="&#xc4;" horiz-adv-x="746" 
d="M252.5 761.5q-15.5 15.5 -15.5 36.5t15.5 36.5t36.5 15.5t36.5 -15.5t15.5 -36.5t-15.5 -36.5t-36.5 -15.5t-36.5 15.5zM420.5 761.5q-15.5 15.5 -15.5 36.5t15.5 36.5t36.5 15.5t36.5 -15.5t15.5 -36.5t-15.5 -36.5t-36.5 -15.5t-36.5 15.5zM62 7.5q-13 13.5 -13 32.5
q0 7 5 20l255 602q9 20 24 31t35 11h10q20 0 35 -11t24 -31l255 -602q5 -13 5 -20q0 -19 -13 -32.5t-33 -13.5q-15 0 -26.5 7.5t-17.5 21.5l-65 155h-338l-65 -155q-6 -14 -17.5 -21.5t-26.5 -7.5q-20 0 -33 13.5zM373 573q-5 0 -8 -7l-126 -303h268l-126 303q-3 7 -8 7z
" />
    <glyph glyph-name="uni01DE" unicode="&#x1de;" horiz-adv-x="746" 
d="M235 895q-9 9 -9 22t9 22t22 9h234q13 0 22 -9t9 -22t-9 -22t-22 -9h-234q-13 0 -22 9zM253.5 757.5q-15.5 15.5 -15.5 36.5t15.5 36.5t36.5 15.5t36.5 -15.5t15.5 -36.5t-15.5 -36.5t-36.5 -15.5t-36.5 15.5zM421.5 757.5q-15.5 15.5 -15.5 36.5t15.5 36.5t36.5 15.5
t36.5 -15.5t15.5 -36.5t-15.5 -36.5t-36.5 -15.5t-36.5 15.5zM62 7.5q-13 13.5 -13 32.5q0 7 5 20l255 602q9 20 24 31t35 11h10q20 0 35 -11t24 -31l255 -602q5 -13 5 -20q0 -19 -13 -32.5t-33 -13.5q-15 0 -26.5 7.5t-17.5 21.5l-65 155h-338l-65 -155q-6 -14 -17.5 -21.5
t-26.5 -7.5q-20 0 -33 13.5zM373 573q-5 0 -8 -7l-126 -303h268l-126 303q-3 7 -8 7z" />
    <glyph glyph-name="uni0226" unicode="&#x226;" horiz-adv-x="746" 
d="M339.5 766.5q-14.5 14.5 -14.5 34.5t14.5 35t34.5 15q21 0 35.5 -15t14.5 -35t-14.5 -34.5t-35.5 -14.5q-20 0 -34.5 14.5zM62 7.5q-13 13.5 -13 32.5q0 7 5 20l255 602q9 20 24 31t35 11h10q20 0 35 -11t24 -31l255 -602q5 -13 5 -20q0 -19 -13 -32.5t-33 -13.5
q-15 0 -26.5 7.5t-17.5 21.5l-65 155h-338l-65 -155q-6 -14 -17.5 -21.5t-26.5 -7.5q-20 0 -33 13.5zM373 573q-5 0 -8 -7l-126 -303h268l-126 303q-3 7 -8 7z" />
    <glyph glyph-name="uni1EA0" unicode="&#x1ea0;" horiz-adv-x="746" 
d="M62 7.5q-13 13.5 -13 32.5q0 7 5 20l255 602q9 20 24 31t35 11h10q20 0 35 -11t24 -31l255 -602q5 -13 5 -20q0 -19 -13 -32.5t-33 -13.5q-15 0 -26.5 7.5t-17.5 21.5l-65 155h-338l-65 -155q-6 -14 -17.5 -21.5t-26.5 -7.5q-20 0 -33 13.5zM373 573q-5 0 -8 -7
l-126 -303h268l-126 303q-3 7 -8 7zM336.5 -151.5q-15.5 15.5 -15.5 36.5t15.5 36.5t36.5 15.5t36.5 -15.5t15.5 -36.5t-15.5 -36.5t-36.5 -15.5t-36.5 15.5z" />
    <glyph glyph-name="uni01E0" unicode="&#x1e0;" horiz-adv-x="746" 
d="M235 909q-9 9 -9 22t9 22t22 9h234q13 0 22 -9t9 -22t-9 -22t-22 -9h-234q-13 0 -22 9zM339.5 766.5q-14.5 14.5 -14.5 34.5t14.5 35t34.5 15q21 0 35.5 -15t14.5 -35t-14.5 -34.5t-35.5 -14.5q-20 0 -34.5 14.5zM62 7.5q-13 13.5 -13 32.5q0 7 5 20l255 602q9 20 24 31
t35 11h10q20 0 35 -11t24 -31l255 -602q5 -13 5 -20q0 -19 -13 -32.5t-33 -13.5q-15 0 -26.5 7.5t-17.5 21.5l-65 155h-338l-65 -155q-6 -14 -17.5 -21.5t-26.5 -7.5q-20 0 -33 13.5zM373 573q-5 0 -8 -7l-126 -303h268l-126 303q-3 7 -8 7z" />
    <glyph glyph-name="Agrave" unicode="&#xc0;" horiz-adv-x="746" 
d="M350 749l-69 82q-10 10 -10 26q0 18 10.5 28t27.5 10q24 0 34 -20l51 -89q7 -12 7 -20q0 -12 -7.5 -20t-20.5 -8q-14 0 -23 11zM62 7.5q-13 13.5 -13 32.5q0 7 5 20l255 602q9 20 24 31t35 11h10q20 0 35 -11t24 -31l255 -602q5 -13 5 -20q0 -19 -13 -32.5t-33 -13.5
q-15 0 -26.5 7.5t-17.5 21.5l-65 155h-338l-65 -155q-6 -14 -17.5 -21.5t-26.5 -7.5q-20 0 -33 13.5zM373 573q-5 0 -8 -7l-126 -303h268l-126 303q-3 7 -8 7z" />
    <glyph glyph-name="uni1EA2" unicode="&#x1ea2;" horiz-adv-x="746" 
d="M349 743q-7 6 -7 16q0 17 9 28.5t30 24.5q17 11 24 18.5t7 17.5q0 11 -9 17t-25 6q-24 0 -44 -9q-19 -9 -23 -9q-9 0 -15.5 6.5t-6.5 15.5q0 12 11 20q32 20 78 20q38 0 60.5 -17.5t22.5 -48.5q0 -21 -9 -34.5t-31 -29.5q-25 -17 -31 -32q-6 -16 -24 -16q-10 0 -17 6z
M62 7.5q-13 13.5 -13 32.5q0 7 5 20l255 602q9 20 24 31t35 11h10q20 0 35 -11t24 -31l255 -602q5 -13 5 -20q0 -19 -13 -32.5t-33 -13.5q-15 0 -26.5 7.5t-17.5 21.5l-65 155h-338l-65 -155q-6 -14 -17.5 -21.5t-26.5 -7.5q-20 0 -33 13.5zM373 573q-5 0 -8 -7l-126 -303
h268l-126 303q-3 7 -8 7z" />
    <glyph glyph-name="uni0202" unicode="&#x202;" horiz-adv-x="746" 
d="M238 747.5q-9 9.5 -9 22.5q0 8 3 14q19 38 56.5 60t84.5 22t84.5 -22t56.5 -60q3 -6 3 -14q0 -13 -9 -22.5t-23 -9.5q-20 0 -29 20q-11 23 -32.5 35.5t-50.5 12.5t-50.5 -12.5t-32.5 -35.5q-9 -20 -29 -20q-14 0 -23 9.5zM62 7.5q-13 13.5 -13 32.5q0 7 5 20l255 602
q9 20 24 31t35 11h10q20 0 35 -11t24 -31l255 -602q5 -13 5 -20q0 -19 -13 -32.5t-33 -13.5q-15 0 -26.5 7.5t-17.5 21.5l-65 155h-338l-65 -155q-6 -14 -17.5 -21.5t-26.5 -7.5q-20 0 -33 13.5zM373 573q-5 0 -8 -7l-126 -303h268l-126 303q-3 7 -8 7z" />
    <glyph glyph-name="Amacron" unicode="&#x100;" horiz-adv-x="746" 
d="M234 768q-9 9 -9 22t9 22t22 9h234q13 0 22 -9t9 -22t-9 -22t-22 -9h-234q-13 0 -22 9zM62 7.5q-13 13.5 -13 32.5q0 7 5 20l255 602q9 20 24 31t35 11h10q20 0 35 -11t24 -31l255 -602q5 -13 5 -20q0 -19 -13 -32.5t-33 -13.5q-15 0 -26.5 7.5t-17.5 21.5l-65 155h-338
l-65 -155q-6 -14 -17.5 -21.5t-26.5 -7.5q-20 0 -33 13.5zM373 573q-5 0 -8 -7l-126 -303h268l-126 303q-3 7 -8 7z" />
    <glyph glyph-name="Aogonek" unicode="&#x104;" horiz-adv-x="746" 
d="M526.5 -180q-27.5 24 -27.5 61q0 41 29 76t82 60l-68 161h-338l-65 -155q-6 -14 -17.5 -21.5t-26.5 -7.5q-20 0 -33 13.5t-13 32.5q0 7 5 20l255 602q9 20 24 31t35 11h10q20 0 35 -11t24 -31l255 -602q5 -13 5 -20q0 -14 -6.5 -25t-19.5 -17q-97 -43 -97 -97
q0 -47 50 -47q16 0 35 6l3 1l6 1q10 0 16.5 -6.5t6.5 -16.5q0 -11 -11 -19q-36 -24 -87 -24q-39 0 -66.5 24zM373 573q-5 0 -8 -7l-126 -303h268l-126 303q-3 7 -8 7z" />
    <glyph glyph-name="Aring" unicode="&#xc5;" horiz-adv-x="746" 
d="M306 750q-28 28 -28 67t28 67t67 28t67 -28t28 -67t-28 -67t-67 -28t-67 28zM407 783q14 14 14 34t-14 34t-34 14t-34 -14t-14 -34t14 -34t34 -14t34 14zM62 7.5q-13 13.5 -13 32.5q0 7 5 20l255 602q9 20 24 31t35 11h10q20 0 35 -11t24 -31l255 -602q5 -13 5 -20
q0 -19 -13 -32.5t-33 -13.5q-15 0 -26.5 7.5t-17.5 21.5l-65 155h-338l-65 -155q-6 -14 -17.5 -21.5t-26.5 -7.5q-20 0 -33 13.5zM373 573q-5 0 -8 -7l-126 -303h268l-126 303q-3 7 -8 7z" />
    <glyph glyph-name="Aringacute" unicode="&#x1fa;" horiz-adv-x="746" 
d="M445.5 899q-6.5 6 -6.5 15q0 8 5 20l36 61q14 25 33 25q15 0 25 -9t10 -24q0 -14 -13 -29l-51 -55q-12 -10 -23 -10q-9 0 -15.5 6zM306 750q-28 28 -28 67t28 67t67 28t67 -28t28 -67t-28 -67t-67 -28t-67 28zM407 783q14 14 14 34t-14 34t-34 14t-34 -14t-14 -34t14 -34
t34 -14t34 14zM62 7.5q-13 13.5 -13 32.5q0 7 5 20l255 602q9 20 24 31t35 11h10q20 0 35 -11t24 -31l255 -602q5 -13 5 -20q0 -19 -13 -32.5t-33 -13.5q-15 0 -26.5 7.5t-17.5 21.5l-65 155h-338l-65 -155q-6 -14 -17.5 -21.5t-26.5 -7.5q-20 0 -33 13.5zM373 573
q-5 0 -8 -7l-126 -303h268l-126 303q-3 7 -8 7z" />
    <glyph glyph-name="Atilde" unicode="&#xc3;" horiz-adv-x="746" 
d="M218.5 749q-7.5 7 -7.5 17q0 35 25 65.5t60 30.5q19 0 36 -5.5t44 -18.5q26 -13 41.5 -18t32.5 -5q13 0 21.5 6t14.5 20q8 22 26 22q10 0 16.5 -6.5t7.5 -16.5q0 -37 -24.5 -66.5t-60.5 -29.5q-19 0 -35 5.5t-47 19.5q-26 13 -41 18t-31 5q-25 0 -38 -31q-6 -19 -24 -19
q-9 0 -16.5 7zM62 7.5q-13 13.5 -13 32.5q0 7 5 20l255 602q9 20 24 31t35 11h10q20 0 35 -11t24 -31l255 -602q5 -13 5 -20q0 -19 -13 -32.5t-33 -13.5q-15 0 -26.5 7.5t-17.5 21.5l-65 155h-338l-65 -155q-6 -14 -17.5 -21.5t-26.5 -7.5q-20 0 -33 13.5zM373 573
q-5 0 -8 -7l-126 -303h268l-126 303q-3 7 -8 7z" />
    <glyph glyph-name="AE" unicode="&#xc6;" horiz-adv-x="1040" 
d="M15 7.5q-14 13.5 -14 32.5q0 12 10 29l399 605q20 25 47 25h488q18 0 31 -13t13 -31t-13 -30.5t-31 -12.5h-342q-12 0 -12 -12v-207h318q18 0 31 -13t13 -31t-13 -30.5t-31 -12.5h-318v-208q0 -12 12 -12h342q18 0 31 -13t13 -31t-13 -30.5t-31 -12.5h-401
q-19 0 -32.5 13.5t-13.5 32.5v133h-307l-101 -158q-18 -26 -42 -26q-19 0 -33 13.5zM484 612q-10 0 -15 -8l-222 -341h251v349h-14z" />
    <glyph glyph-name="AEacute" unicode="&#x1fc;" horiz-adv-x="1040" 
d="M525 745.5q-8 7.5 -8 20.5q0 8 7 20l51 89q10 20 34 20q16 0 27 -10.5t11 -27.5q0 -16 -10 -26l-69 -82q-9 -11 -23 -11q-12 0 -20 7.5zM15 7.5q-14 13.5 -14 32.5q0 12 10 29l399 605q20 25 47 25h488q18 0 31 -13t13 -31t-13 -30.5t-31 -12.5h-342q-12 0 -12 -12v-207
h318q18 0 31 -13t13 -31t-13 -30.5t-31 -12.5h-318v-208q0 -12 12 -12h342q18 0 31 -13t13 -31t-13 -30.5t-31 -12.5h-401q-19 0 -32.5 13.5t-13.5 32.5v133h-307l-101 -158q-18 -26 -42 -26q-19 0 -33 13.5zM484 612q-10 0 -15 -8l-222 -341h251v349h-14z" />
    <glyph glyph-name="B" unicode="B" horiz-adv-x="693" 
d="M109.5 12.5q-13.5 13.5 -13.5 32.5v607q0 19 13.5 33t32.5 14h236q105 0 165 -48.5t60 -133.5q0 -55 -26 -94.5t-70 -59.5q62 -20 98.5 -62.5t36.5 -104.5q0 -97 -65.5 -147t-192.5 -50h-242q-19 0 -32.5 13.5zM477 425.5q37 28.5 37 84.5q0 47 -38.5 74.5t-104.5 27.5
h-170q-12 0 -12 -12v-203h165q86 0 123 28.5zM510.5 114.5q41.5 28.5 41.5 85.5q0 113 -176 113h-187v-215q0 -12 12 -12h174q94 0 135.5 28.5z" />
    <glyph glyph-name="C" unicode="C" horiz-adv-x="695" 
d="M226 33q-81 44 -126.5 126t-45.5 190q0 109 46 191q45 81 124.5 125t180.5 44q66 0 119 -15t109 -47q23 -11 23 -39q0 -15 -11.5 -27t-29.5 -12q-11 0 -18 4q-46 24 -88 35.5t-95 11.5q-86 0 -145 -35t-90.5 -95.5t-31.5 -140.5t31 -139q31 -63 92 -97.5t144 -34.5
q53 0 95 11.5t88 35.5q7 4 18 4q18 0 29.5 -11.5t11.5 -27.5q0 -27 -23 -39q-56 -32 -109 -47t-119 -15q-100 0 -179 44z" />
    <glyph glyph-name="Cacute" unicode="&#x106;" horiz-adv-x="695" 
d="M375 745.5q-8 7.5 -8 20.5q0 8 7 20l51 89q10 20 34 20q16 0 27 -10.5t11 -27.5q0 -16 -10 -26l-69 -82q-9 -11 -23 -11q-12 0 -20 7.5zM226 33q-81 44 -126.5 126t-45.5 190q0 109 46 191q45 81 124.5 125t180.5 44q66 0 119 -15t109 -47q23 -11 23 -39q0 -15 -11.5 -27
t-29.5 -12q-11 0 -18 4q-46 24 -88 35.5t-95 11.5q-86 0 -145 -35t-90.5 -95.5t-31.5 -140.5t31 -139q31 -63 92 -97.5t144 -34.5q53 0 95 11.5t88 35.5q7 4 18 4q18 0 29.5 -11.5t11.5 -27.5q0 -27 -23 -39q-56 -32 -109 -47t-119 -15q-100 0 -179 44z" />
    <glyph glyph-name="Ccaron" unicode="&#x10c;" horiz-adv-x="695" 
d="M335 758l-68 70q-8 10 -8 21t9.5 20.5t21.5 9.5q11 0 19 -7l78 -66q6 -4 8 -4q4 0 8 4l78 66q8 7 19 7q12 0 21.5 -9.5t9.5 -20.5t-8 -21l-68 -70q-19 -20 -41 -20h-38q-22 0 -41 20zM226 33q-81 44 -126.5 126t-45.5 190q0 109 46 191q45 81 124.5 125t180.5 44
q66 0 119 -15t109 -47q23 -11 23 -39q0 -15 -11.5 -27t-29.5 -12q-11 0 -18 4q-46 24 -88 35.5t-95 11.5q-86 0 -145 -35t-90.5 -95.5t-31.5 -140.5t31 -139q31 -63 92 -97.5t144 -34.5q53 0 95 11.5t88 35.5q7 4 18 4q18 0 29.5 -11.5t11.5 -27.5q0 -27 -23 -39
q-56 -32 -109 -47t-119 -15q-100 0 -179 44z" />
    <glyph glyph-name="Ccedilla" unicode="&#xc7;" horiz-adv-x="695" 
d="M644.5 117.5q11.5 -11.5 11.5 -27.5q0 -27 -23 -39q-54 -31 -105.5 -46t-114.5 -16l-29 -50q15 3 32 3q34 0 56 -20t22 -51q0 -46 -28.5 -69.5t-83.5 -23.5q-47 0 -91 26q-11 10 -11 18q0 9 5.5 15t14.5 6q4 0 10 -3q32 -17 59 -17q56 0 56 45q0 14 -9.5 22t-25.5 8
q-20 0 -44 -11q-6 -3 -10 -3q-7 0 -13 5t-6 12q0 8 4 15l47 74q-89 7 -161 54q-74 46 -113.5 125.5t-39.5 179.5q0 109 46 191q45 81 124.5 125t180.5 44q66 0 119 -15t109 -47q23 -11 23 -39q0 -15 -11.5 -27t-29.5 -12q-11 0 -18 4q-46 24 -88 35.5t-95 11.5
q-86 0 -145 -35t-90.5 -95.5t-31.5 -140.5t31 -139q31 -63 92 -97.5t144 -34.5q53 0 95 11.5t88 35.5q7 4 18 4q18 0 29.5 -11.5z" />
    <glyph glyph-name="uni1E08" unicode="&#x1e08;" horiz-adv-x="695" 
d="M375 745.5q-8 7.5 -8 20.5q0 8 7 20l51 89q10 20 34 20q18 0 28 -10.5t10 -27.5q0 -16 -10 -26l-69 -82q-9 -11 -23 -11q-12 0 -20 7.5zM644.5 117.5q11.5 -11.5 11.5 -27.5q0 -27 -23 -39q-54 -31 -105.5 -46t-114.5 -16l-29 -50q15 3 32 3q34 0 56 -20t22 -51
q0 -46 -28.5 -69.5t-83.5 -23.5q-47 0 -91 26q-11 10 -11 18q0 9 5.5 15t14.5 6q4 0 10 -3q32 -17 59 -17q56 0 56 45q0 14 -9.5 22t-25.5 8q-20 0 -44 -11q-6 -3 -10 -3q-7 0 -13 5t-6 12q0 8 4 15l47 74q-89 7 -161 54q-74 46 -113.5 125.5t-39.5 179.5q0 109 46 191
q45 81 124.5 125t180.5 44q66 0 119 -15t109 -47q23 -11 23 -39q0 -15 -11.5 -27t-29.5 -12q-11 0 -18 4q-46 24 -88 35.5t-95 11.5q-86 0 -145 -35t-90.5 -95.5t-31.5 -140.5t31 -139q31 -63 92 -97.5t144 -34.5q53 0 95 11.5t88 35.5q7 4 18 4q18 0 29.5 -11.5z" />
    <glyph glyph-name="Ccircumflex" unicode="&#x108;" horiz-adv-x="695" 
d="M268.5 746.5q-9.5 9.5 -9.5 20.5t8 21l68 70q19 20 41 20h38q22 0 41 -20l68 -70q8 -10 8 -21t-9.5 -20.5t-21.5 -9.5q-11 0 -19 7l-78 66q-3 4 -8 4q-4 0 -8 -4l-78 -66q-8 -7 -19 -7q-12 0 -21.5 9.5zM226 33q-81 44 -126.5 126t-45.5 190q0 109 46 191
q45 81 124.5 125t180.5 44q66 0 119 -15t109 -47q23 -11 23 -39q0 -15 -11.5 -27t-29.5 -12q-11 0 -18 4q-46 24 -88 35.5t-95 11.5q-86 0 -145 -35t-90.5 -95.5t-31.5 -140.5t31 -139q31 -63 92 -97.5t144 -34.5q53 0 95 11.5t88 35.5q7 4 18 4q18 0 29.5 -11.5t11.5 -27.5
q0 -27 -23 -39q-56 -32 -109 -47t-119 -15q-100 0 -179 44z" />
    <glyph glyph-name="Cdotaccent" unicode="&#x10a;" horiz-adv-x="695" 
d="M358.5 761.5q-15.5 15.5 -15.5 36.5t15.5 36.5t36.5 15.5t36.5 -15.5t15.5 -36.5t-15.5 -36.5t-36.5 -15.5t-36.5 15.5zM226 33q-81 44 -126.5 126t-45.5 190q0 109 46 191q45 81 124.5 125t180.5 44q66 0 119 -15t109 -47q23 -11 23 -39q0 -15 -11.5 -27t-29.5 -12
q-11 0 -18 4q-46 24 -88 35.5t-95 11.5q-86 0 -145 -35t-90.5 -95.5t-31.5 -140.5t31 -139q31 -63 92 -97.5t144 -34.5q53 0 95 11.5t88 35.5q7 4 18 4q18 0 29.5 -11.5t11.5 -27.5q0 -27 -23 -39q-56 -32 -109 -47t-119 -15q-100 0 -179 44z" />
    <glyph glyph-name="D" unicode="D" horiz-adv-x="751" 
d="M109.5 12.5q-13.5 13.5 -13.5 32.5v607q0 19 13.5 33t32.5 14h201q113 0 195 -50q77 -50 118 -129.5t41 -170.5q0 -89 -40 -168q-41 -84 -122 -133t-192 -49h-201q-19 0 -32.5 13.5zM476 120q62 33 95.5 92t33.5 137t-34 138t-96 92.5t-143 32.5h-131q-12 0 -12 -12v-502
q0 -12 12 -12h131q82 0 144 34z" />
    <glyph glyph-name="uni01C4" unicode="&#x1c4;" horiz-adv-x="1358" 
d="M979 758l-68 70q-8 10 -8 21t9.5 20.5t21.5 9.5q11 0 19 -7l78 -66q6 -4 8 -4q4 0 8 4l78 66q8 7 19 7q12 0 21.5 -9.5t9.5 -20.5t-8 -21l-68 -70q-19 -20 -41 -20h-38q-22 0 -41 20zM109.5 12.5q-13.5 13.5 -13.5 32.5v607q0 19 13.5 33t32.5 14h201q113 0 195 -50
q77 -50 118 -129.5t41 -170.5q0 -89 -40 -168q-41 -84 -122 -133t-192 -49h-201q-19 0 -32.5 13.5zM783.5 16.5q-17.5 17.5 -17.5 41.5q0 22 12 38l405 500q4 4 4 7q0 7 -10 7h-365q-18 0 -31 13t-13 31t13 31.5t31 13.5h434q27 0 44.5 -18t17.5 -45q0 -20 -16 -41
l-400 -495q-4 -4 -4 -7q0 -7 10 -7h372q18 0 31 -13t13 -31t-13 -30.5t-31 -12.5h-445q-24 0 -41.5 17.5zM476 120q62 33 95.5 92t33.5 137t-34 138t-96 92.5t-143 32.5h-131q-12 0 -12 -12v-502q0 -12 12 -12h131q82 0 144 34z" />
    <glyph glyph-name="Eth" unicode="&#xd0;" horiz-adv-x="756" 
d="M114.5 12.5q-13.5 13.5 -13.5 32.5v269h-53q-14 0 -24 10t-10 24q0 15 9.5 25t24.5 10h53v269q0 19 13.5 33t32.5 14h201q113 0 195 -50q77 -50 118 -129.5t41 -170.5q0 -89 -40 -168q-41 -84 -122 -133t-192 -49h-201q-19 0 -32.5 13.5zM481 120q62 33 95.5 92t33.5 137
t-34 138t-96 92.5t-143 32.5h-131q-12 0 -12 -12v-217h116q14 0 24.5 -10.5t10.5 -24.5q0 -15 -10 -24.5t-25 -9.5h-116v-216q0 -12 12 -12h131q82 0 144 34z" />
    <glyph glyph-name="Dcaron" unicode="&#x10e;" horiz-adv-x="751" 
d="M315 758l-68 70q-8 10 -8 21t9.5 20.5t21.5 9.5q11 0 19 -7l78 -66q6 -4 8 -4q4 0 8 4l78 66q8 7 19 7q12 0 21.5 -9.5t9.5 -20.5t-8 -21l-68 -70q-19 -20 -41 -20h-38q-22 0 -41 20zM109.5 12.5q-13.5 13.5 -13.5 32.5v607q0 19 13.5 33t32.5 14h201q113 0 195 -50
q77 -50 118 -129.5t41 -170.5q0 -89 -40 -168q-41 -84 -122 -133t-192 -49h-201q-19 0 -32.5 13.5zM476 120q62 33 95.5 92t33.5 137t-34 138t-96 92.5t-143 32.5h-131q-12 0 -12 -12v-502q0 -12 12 -12h131q82 0 144 34z" />
    <glyph glyph-name="Dcroat" unicode="&#x110;" horiz-adv-x="756" 
d="M114.5 12.5q-13.5 13.5 -13.5 32.5v269h-53q-14 0 -24 10t-10 24q0 15 9.5 25t24.5 10h53v269q0 19 13.5 33t32.5 14h201q113 0 195 -50q77 -50 118 -129.5t41 -170.5q0 -89 -40 -168q-41 -84 -122 -133t-192 -49h-201q-19 0 -32.5 13.5zM481 120q62 33 95.5 92t33.5 137
t-34 138t-96 92.5t-143 32.5h-131q-12 0 -12 -12v-217h116q14 0 24.5 -10.5t10.5 -24.5q0 -15 -10 -24.5t-25 -9.5h-116v-216q0 -12 12 -12h131q82 0 144 34z" />
    <glyph glyph-name="uni1E0C" unicode="&#x1e0c;" horiz-adv-x="751" 
d="M109.5 12.5q-13.5 13.5 -13.5 32.5v607q0 19 13.5 33t32.5 14h201q113 0 195 -50q77 -50 118 -129.5t41 -170.5q0 -89 -40 -168q-41 -84 -122 -133t-192 -49h-201q-19 0 -32.5 13.5zM476 120q62 33 95.5 92t33.5 137t-34 138t-96 92.5t-143 32.5h-131q-12 0 -12 -12v-502
q0 -12 12 -12h131q82 0 144 34zM338.5 -151.5q-15.5 15.5 -15.5 36.5t15.5 36.5t36.5 15.5t36.5 -15.5t15.5 -36.5t-15.5 -36.5t-36.5 -15.5t-36.5 15.5z" />
    <glyph glyph-name="uni1E0E" unicode="&#x1e0e;" horiz-adv-x="751" 
d="M109.5 12.5q-13.5 13.5 -13.5 32.5v607q0 19 13.5 33t32.5 14h201q113 0 195 -50q77 -50 118 -129.5t41 -170.5q0 -89 -40 -168q-41 -84 -122 -133t-192 -49h-201q-19 0 -32.5 13.5zM476 120q62 33 95.5 92t33.5 137t-34 138t-96 92.5t-143 32.5h-131q-12 0 -12 -12v-502
q0 -12 12 -12h131q82 0 144 34zM236 -129q-9 9 -9 22t9 22t22 9h234q13 0 22 -9t9 -22t-9 -22t-22 -9h-234q-13 0 -22 9z" />
    <glyph glyph-name="uni01C5" unicode="&#x1c5;" horiz-adv-x="1228" 
d="M921 586l-68 70q-8 10 -8 21t9.5 20.5t21.5 9.5q11 0 19 -7l78 -66q6 -4 8 -4q4 0 8 4l78 66q8 7 19 7q12 0 21.5 -9.5t9.5 -20.5t-8 -21l-68 -70q-19 -20 -41 -20h-38q-22 0 -41 20zM109.5 12.5q-13.5 13.5 -13.5 32.5v607q0 19 13.5 33t32.5 14h201q113 0 195 -50
q77 -50 118 -129.5t41 -170.5q0 -89 -40 -168q-41 -84 -122 -133t-192 -49h-201q-19 0 -32.5 13.5zM476 120q62 33 95.5 92t33.5 137t-34 138t-96 92.5t-143 32.5h-131q-12 0 -12 -12v-502q0 -12 12 -12h131q82 0 144 34zM787 14q-18 15 -18 39q0 23 16 42l274 315q3 5 3 8
q0 6 -9 6h-232q-18 0 -30.5 12.5t-12.5 30.5t12.5 31t30.5 13h303q26 0 42.5 -16.5t16.5 -41.5q0 -22 -14 -41l-266 -312q-3 -4 -3 -8q0 -6 9 -6h236q18 0 31 -13t13 -31t-13 -30.5t-31 -12.5h-312q-28 0 -46 15z" />
    <glyph glyph-name="E" unicode="E" horiz-adv-x="638" 
d="M109.5 12.5q-13.5 13.5 -13.5 32.5v607q0 19 13.5 33t32.5 14h401q18 0 31 -13t13 -31t-13 -30.5t-31 -12.5h-342q-12 0 -12 -12v-207h318q18 0 31 -13t13 -31t-13 -30.5t-31 -12.5h-318v-208q0 -12 12 -12h342q18 0 31 -13t13 -31t-13 -30.5t-31 -12.5h-401
q-19 0 -32.5 13.5z" />
    <glyph glyph-name="uni0045_uni030B" horiz-adv-x="638" 
d="M247 744q-8 7 -8 19q0 6 1 8l27 90q4 15 15 23.5t24 8.5q15 0 25.5 -9.5t10.5 -24.5q0 -11 -7 -25l-41 -79q-10 -18 -27 -18q-12 0 -20 7zM363 744q-8 7 -8 19q0 6 1 8l27 90q4 15 15 23.5t24 8.5q15 0 25.5 -9.5t10.5 -24.5q0 -11 -7 -25l-41 -79q-10 -18 -27 -18
q-12 0 -20 7zM109.5 12.5q-13.5 13.5 -13.5 32.5v607q0 19 13.5 33t32.5 14h401q18 0 31 -13t13 -31t-13 -30.5t-31 -12.5h-342q-12 0 -12 -12v-207h318q18 0 31 -13t13 -31t-13 -30.5t-31 -12.5h-318v-208q0 -12 12 -12h342q18 0 31 -13t13 -31t-13 -30.5t-31 -12.5h-401
q-19 0 -32.5 13.5z" />
    <glyph glyph-name="E_tildecomb" horiz-adv-x="638" 
d="M180.5 750q-7.5 7 -7.5 17q0 35 25 65.5t60 30.5q19 0 36 -5.5t44 -18.5q26 -13 41.5 -18t32.5 -5q13 0 21.5 6t14.5 20q8 22 26 22q10 0 16.5 -6.5t7.5 -16.5q0 -37 -25 -66.5t-60 -29.5q-18 0 -34.5 5.5t-47.5 19.5q-26 13 -41 18t-31 5q-25 0 -38 -31q-6 -19 -24 -19
q-9 0 -16.5 7zM109.5 12.5q-13.5 13.5 -13.5 32.5v607q0 19 13.5 33t32.5 14h401q18 0 31 -13t13 -31t-13 -30.5t-31 -12.5h-342q-12 0 -12 -12v-207h318q18 0 31 -13t13 -31t-13 -30.5t-31 -12.5h-318v-208q0 -12 12 -12h342q18 0 31 -13t13 -31t-13 -30.5t-31 -12.5h-401
q-19 0 -32.5 13.5z" />
    <glyph glyph-name="uni0045_uni030D" horiz-adv-x="638" 
d="M299.5 930q9.5 10 27.5 10q17 0 27 -9.5t10 -27.5v-117q0 -17 -9.5 -27t-27.5 -10q-17 0 -27 9.5t-10 27.5v117q0 17 9.5 27zM109.5 12.5q-13.5 13.5 -13.5 32.5v607q0 19 13.5 33t32.5 14h401q18 0 31 -13t13 -31t-13 -30.5t-31 -12.5h-342q-12 0 -12 -12v-207h318
q18 0 31 -13t13 -31t-13 -30.5t-31 -12.5h-318v-208q0 -12 12 -12h342q18 0 31 -13t13 -31t-13 -30.5t-31 -12.5h-401q-19 0 -32.5 13.5z" />
    <glyph glyph-name="Eacute" unicode="&#xc9;" horiz-adv-x="638" 
d="M322 745.5q-8 7.5 -8 20.5q0 8 7 20l51 89q10 20 34 20q16 0 27 -10.5t11 -27.5q0 -16 -10 -26l-69 -82q-9 -11 -23 -11q-12 0 -20 7.5zM109.5 12.5q-13.5 13.5 -13.5 32.5v607q0 19 13.5 33t32.5 14h401q18 0 31 -13t13 -31t-13 -30.5t-31 -12.5h-342q-12 0 -12 -12
v-207h318q18 0 31 -13t13 -31t-13 -30.5t-31 -12.5h-318v-208q0 -12 12 -12h342q18 0 31 -13t13 -31t-13 -30.5t-31 -12.5h-401q-19 0 -32.5 13.5z" />
    <glyph glyph-name="Ebreve" unicode="&#x114;" horiz-adv-x="638" 
d="M257.5 769q-37.5 22 -56.5 60q-3 6 -3 14q0 13 9 22.5t23 9.5q20 0 29 -20q11 -23 32.5 -35.5t50.5 -12.5t50.5 12.5t32.5 35.5q9 20 29 20q14 0 23 -9.5t9 -22.5q0 -8 -3 -14q-19 -38 -56.5 -60t-84.5 -22t-84.5 22zM109.5 12.5q-13.5 13.5 -13.5 32.5v607q0 19 13.5 33
t32.5 14h401q18 0 31 -13t13 -31t-13 -30.5t-31 -12.5h-342q-12 0 -12 -12v-207h318q18 0 31 -13t13 -31t-13 -30.5t-31 -12.5h-318v-208q0 -12 12 -12h342q18 0 31 -13t13 -31t-13 -30.5t-31 -12.5h-401q-19 0 -32.5 13.5z" />
    <glyph glyph-name="Ecaron" unicode="&#x11a;" horiz-adv-x="638" 
d="M282 758l-68 70q-8 10 -8 21t9.5 20.5t21.5 9.5q11 0 19 -7l78 -66q6 -4 8 -4q4 0 8 4l78 66q8 7 19 7q12 0 21.5 -9.5t9.5 -20.5t-8 -21l-68 -70q-19 -20 -41 -20h-38q-22 0 -41 20zM109.5 12.5q-13.5 13.5 -13.5 32.5v607q0 19 13.5 33t32.5 14h401q18 0 31 -13t13 -31
t-13 -30.5t-31 -12.5h-342q-12 0 -12 -12v-207h318q18 0 31 -13t13 -31t-13 -30.5t-31 -12.5h-318v-208q0 -12 12 -12h342q18 0 31 -13t13 -31t-13 -30.5t-31 -12.5h-401q-19 0 -32.5 13.5z" />
    <glyph glyph-name="uni1E1C" unicode="&#x1e1c;" horiz-adv-x="638" 
d="M257.5 769q-37.5 22 -56.5 60q-3 6 -3 14q0 13 9 22.5t23 9.5q20 0 29 -20q11 -23 32.5 -35.5t50.5 -12.5t50.5 12.5t32.5 35.5q9 20 29 20q14 0 23 -9.5t9 -22.5q0 -8 -3 -14q-19 -38 -56.5 -60t-84.5 -22t-84.5 22zM574 73q13 -13 13 -31t-13 -30.5t-31 -12.5h-177
l-35 -60q15 3 32 3q34 0 56 -20t22 -51q0 -46 -28.5 -69.5t-83.5 -23.5q-47 0 -91 26q-11 10 -11 18q0 9 5.5 15t14.5 6q4 0 10 -3q32 -17 59 -17q56 0 56 45q0 14 -9.5 22t-25.5 8q-20 0 -44 -11q-6 -3 -10 -3q-7 0 -13 5t-6 12q0 8 4 15l52 83h-178q-19 0 -32.5 13.5
t-13.5 32.5v607q0 19 13.5 33t32.5 14h401q18 0 31 -13t13 -31t-13 -30.5t-31 -12.5h-342q-12 0 -12 -12v-207h318q18 0 31 -13t13 -31t-13 -30.5t-31 -12.5h-318v-208q0 -12 12 -12h342q18 0 31 -13z" />
    <glyph glyph-name="Ecircumflex" unicode="&#xca;" horiz-adv-x="638" 
d="M215.5 746.5q-9.5 9.5 -9.5 20.5t8 21l68 70q19 20 41 20h38q22 0 41 -20l68 -70q8 -10 8 -21t-9.5 -20.5t-21.5 -9.5q-11 0 -19 7l-78 66q-3 4 -8 4q-4 0 -8 -4l-78 -66q-8 -7 -19 -7q-12 0 -21.5 9.5zM109.5 12.5q-13.5 13.5 -13.5 32.5v607q0 19 13.5 33t32.5 14h401
q18 0 31 -13t13 -31t-13 -30.5t-31 -12.5h-342q-12 0 -12 -12v-207h318q18 0 31 -13t13 -31t-13 -30.5t-31 -12.5h-318v-208q0 -12 12 -12h342q18 0 31 -13t13 -31t-13 -30.5t-31 -12.5h-401q-19 0 -32.5 13.5z" />
    <glyph glyph-name="uni1EBE" unicode="&#x1ebe;" horiz-adv-x="638" 
d="M430.5 841q-6.5 6 -6.5 15q0 8 5 20l36 61q14 25 33 25q15 0 25 -9t10 -24q0 -14 -13 -29l-51 -55q-12 -10 -23 -10q-9 0 -15.5 6zM216 745.5q-10 8.5 -10 18.5q0 12 8 20l68 58q13 10 21 14t20 4h38q12 0 20 -4t21 -14l68 -58q8 -8 8 -20q0 -10 -10 -18.5t-21 -8.5
q-10 0 -19 6l-78 62q-3 4 -8 4q-4 0 -8 -4l-78 -62q-9 -6 -19 -6q-11 0 -21 8.5zM109.5 12.5q-13.5 13.5 -13.5 32.5v607q0 19 13.5 33t32.5 14h401q18 0 31 -13t13 -31t-13 -30.5t-31 -12.5h-342q-12 0 -12 -12v-207h318q18 0 31 -13t13 -31t-13 -30.5t-31 -12.5h-318v-208
q0 -12 12 -12h342q18 0 31 -13t13 -31t-13 -30.5t-31 -12.5h-401q-19 0 -32.5 13.5z" />
    <glyph glyph-name="uni1EC6" unicode="&#x1ec6;" horiz-adv-x="638" 
d="M215.5 746.5q-9.5 9.5 -9.5 20.5t8 21l68 70q19 20 41 20h38q22 0 41 -20l68 -70q8 -10 8 -21t-9.5 -20.5t-21.5 -9.5q-11 0 -19 7l-78 66q-3 4 -8 4q-4 0 -8 -4l-78 -66q-8 -7 -19 -7q-12 0 -21.5 9.5zM109.5 12.5q-13.5 13.5 -13.5 32.5v607q0 19 13.5 33t32.5 14h401
q18 0 31 -13t13 -31t-13 -30.5t-31 -12.5h-342q-12 0 -12 -12v-207h318q18 0 31 -13t13 -31t-13 -30.5t-31 -12.5h-318v-208q0 -12 12 -12h342q18 0 31 -13t13 -31t-13 -30.5t-31 -12.5h-401q-19 0 -32.5 13.5zM305.5 -151.5q-15.5 15.5 -15.5 36.5t15.5 36.5t36.5 15.5
t36.5 -15.5t15.5 -36.5t-15.5 -36.5t-36.5 -15.5t-36.5 15.5z" />
    <glyph glyph-name="uni1EC0" unicode="&#x1ec0;" horiz-adv-x="638" 
d="M428 845l-51 55q-13 15 -13 29q0 15 10 24t25 9q19 0 33 -25l36 -61q5 -12 5 -20q0 -9 -6.5 -15t-15.5 -6q-11 0 -23 10zM216 745.5q-10 8.5 -10 18.5q0 12 8 20l68 58q13 10 21 14t20 4h38q12 0 20 -4t21 -14l68 -58q8 -8 8 -20q0 -10 -10 -18.5t-21 -8.5q-10 0 -19 6
l-78 62q-3 4 -8 4q-4 0 -8 -4l-78 -62q-9 -6 -19 -6q-11 0 -21 8.5zM109.5 12.5q-13.5 13.5 -13.5 32.5v607q0 19 13.5 33t32.5 14h401q18 0 31 -13t13 -31t-13 -30.5t-31 -12.5h-342q-12 0 -12 -12v-207h318q18 0 31 -13t13 -31t-13 -30.5t-31 -12.5h-318v-208
q0 -12 12 -12h342q18 0 31 -13t13 -31t-13 -30.5t-31 -12.5h-401q-19 0 -32.5 13.5z" />
    <glyph glyph-name="uni1EC2" unicode="&#x1ec2;" horiz-adv-x="638" 
d="M429 844.5q-7 6.5 -7 17.5q0 14 9.5 25t31.5 24q6 4 9 7q6 4 11 8t5 9q0 17 -30 17q-20 0 -35 -7t-22 -7q-9 0 -15.5 6t-6.5 15q0 13 11 21q28 17 69 17q81 0 81 -61q0 -19 -9 -31t-30 -25q-11 -7 -18.5 -13.5t-10.5 -13.5q-7 -15 -26 -15q-10 0 -17 6.5zM216 745.5
q-10 8.5 -10 18.5q0 12 8 20l68 58q13 10 21 14t20 4h38q12 0 20 -4t21 -14l68 -58q8 -8 8 -20q0 -10 -10 -18.5t-21 -8.5q-10 0 -19 6l-78 62q-3 4 -8 4q-4 0 -8 -4l-78 -62q-9 -6 -19 -6q-11 0 -21 8.5zM109.5 12.5q-13.5 13.5 -13.5 32.5v607q0 19 13.5 33t32.5 14h401
q18 0 31 -13t13 -31t-13 -30.5t-31 -12.5h-342q-12 0 -12 -12v-207h318q18 0 31 -13t13 -31t-13 -30.5t-31 -12.5h-318v-208q0 -12 12 -12h342q18 0 31 -13t13 -31t-13 -30.5t-31 -12.5h-401q-19 0 -32.5 13.5z" />
    <glyph glyph-name="uni1EC4" unicode="&#x1ec4;" horiz-adv-x="638" 
d="M208 881q-6 5 -6 12q0 29 22 51t56 22q14 0 27.5 -3t36.5 -11l4 -1q30 -12 56 -12q15 0 24 4.5t16 14.5q3 6 7 8.5t12 2.5q19 0 20 -17q0 -28 -23.5 -50.5t-55.5 -22.5q-15 0 -28.5 3t-36.5 12q-38 14 -58 14q-32 0 -40 -19q-1 -6 -7 -9.5t-12 -3.5q-8 0 -14 5z
M216 745.5q-10 8.5 -10 18.5q0 12 8 20l68 58q13 10 21 14t20 4h38q12 0 20 -4t21 -14l68 -58q8 -8 8 -20q0 -10 -10 -18.5t-21 -8.5q-10 0 -19 6l-78 62q-3 4 -8 4q-4 0 -8 -4l-78 -62q-9 -6 -19 -6q-11 0 -21 8.5zM109.5 12.5q-13.5 13.5 -13.5 32.5v607q0 19 13.5 33
t32.5 14h401q18 0 31 -13t13 -31t-13 -30.5t-31 -12.5h-342q-12 0 -12 -12v-207h318q18 0 31 -13t13 -31t-13 -30.5t-31 -12.5h-318v-208q0 -12 12 -12h342q18 0 31 -13t13 -31t-13 -30.5t-31 -12.5h-401q-19 0 -32.5 13.5z" />
    <glyph glyph-name="uni0204" unicode="&#x204;" horiz-adv-x="638" 
d="M245 745.5q-8 7.5 -8 20.5q0 8 7 20l51 89q10 20 34 20q16 0 27 -10.5t11 -27.5q0 -16 -10 -26l-69 -82q-9 -11 -23 -11q-12 0 -20 7.5zM399 745.5q-8 7.5 -8 20.5q0 8 7 20l51 89q10 20 34 20q16 0 27 -10.5t11 -27.5q0 -16 -10 -26l-69 -82q-9 -11 -23 -11
q-12 0 -20 7.5zM109.5 12.5q-13.5 13.5 -13.5 32.5v607q0 19 13.5 33t32.5 14h401q18 0 31 -13t13 -31t-13 -30.5t-31 -12.5h-342q-12 0 -12 -12v-207h318q18 0 31 -13t13 -31t-13 -30.5t-31 -12.5h-318v-208q0 -12 12 -12h342q18 0 31 -13t13 -31t-13 -30.5t-31 -12.5h-401
q-19 0 -32.5 13.5z" />
    <glyph glyph-name="Edieresis" unicode="&#xcb;" horiz-adv-x="638" 
d="M221.5 761.5q-15.5 15.5 -15.5 36.5t15.5 36.5t36.5 15.5t36.5 -15.5t15.5 -36.5t-15.5 -36.5t-36.5 -15.5t-36.5 15.5zM389.5 761.5q-15.5 15.5 -15.5 36.5t15.5 36.5t36.5 15.5t36.5 -15.5t15.5 -36.5t-15.5 -36.5t-36.5 -15.5t-36.5 15.5zM109.5 12.5
q-13.5 13.5 -13.5 32.5v607q0 19 13.5 33t32.5 14h401q18 0 31 -13t13 -31t-13 -30.5t-31 -12.5h-342q-12 0 -12 -12v-207h318q18 0 31 -13t13 -31t-13 -30.5t-31 -12.5h-318v-208q0 -12 12 -12h342q18 0 31 -13t13 -31t-13 -30.5t-31 -12.5h-401q-19 0 -32.5 13.5z" />
    <glyph glyph-name="Edotaccent" unicode="&#x116;" horiz-adv-x="638" 
d="M305.5 761.5q-15.5 15.5 -15.5 36.5t15.5 36.5t36.5 15.5t36.5 -15.5t15.5 -36.5t-15.5 -36.5t-36.5 -15.5t-36.5 15.5zM109.5 12.5q-13.5 13.5 -13.5 32.5v607q0 19 13.5 33t32.5 14h401q18 0 31 -13t13 -31t-13 -30.5t-31 -12.5h-342q-12 0 -12 -12v-207h318
q18 0 31 -13t13 -31t-13 -30.5t-31 -12.5h-318v-208q0 -12 12 -12h342q18 0 31 -13t13 -31t-13 -30.5t-31 -12.5h-401q-19 0 -32.5 13.5z" />
    <glyph glyph-name="uni1EB8" unicode="&#x1eb8;" horiz-adv-x="638" 
d="M109.5 12.5q-13.5 13.5 -13.5 32.5v607q0 19 13.5 33t32.5 14h401q18 0 31 -13t13 -31t-13 -30.5t-31 -12.5h-342q-12 0 -12 -12v-207h318q18 0 31 -13t13 -31t-13 -30.5t-31 -12.5h-318v-208q0 -12 12 -12h342q18 0 31 -13t13 -31t-13 -30.5t-31 -12.5h-401
q-19 0 -32.5 13.5zM305.5 -151.5q-15.5 15.5 -15.5 36.5t15.5 36.5t36.5 15.5t36.5 -15.5t15.5 -36.5t-15.5 -36.5t-36.5 -15.5t-36.5 15.5z" />
    <glyph glyph-name="Egrave" unicode="&#xc8;" horiz-adv-x="638" 
d="M319 749l-69 82q-10 10 -10 26q0 18 10.5 28t27.5 10q24 0 34 -20l51 -89q7 -12 7 -20q0 -12 -7.5 -20t-20.5 -8q-14 0 -23 11zM109.5 12.5q-13.5 13.5 -13.5 32.5v607q0 19 13.5 33t32.5 14h401q18 0 31 -13t13 -31t-13 -30.5t-31 -12.5h-342q-12 0 -12 -12v-207h318
q18 0 31 -13t13 -31t-13 -30.5t-31 -12.5h-318v-208q0 -12 12 -12h342q18 0 31 -13t13 -31t-13 -30.5t-31 -12.5h-401q-19 0 -32.5 13.5z" />
    <glyph glyph-name="uni1EBA" unicode="&#x1eba;" horiz-adv-x="638" 
d="M318 743q-7 6 -7 16q0 17 9 28.5t30 24.5q17 11 24 18.5t7 17.5q0 11 -9 17t-25 6q-25 0 -44 -9t-23 -9q-9 0 -15.5 6.5t-6.5 15.5q0 12 11 20q32 20 78 20q38 0 60.5 -17.5t22.5 -48.5q0 -21 -9 -34.5t-31 -29.5q-25 -17 -31 -32q-6 -16 -24 -16q-10 0 -17 6z
M109.5 12.5q-13.5 13.5 -13.5 32.5v607q0 19 13.5 33t32.5 14h401q18 0 31 -13t13 -31t-13 -30.5t-31 -12.5h-342q-12 0 -12 -12v-207h318q18 0 31 -13t13 -31t-13 -30.5t-31 -12.5h-318v-208q0 -12 12 -12h342q18 0 31 -13t13 -31t-13 -30.5t-31 -12.5h-401
q-19 0 -32.5 13.5z" />
    <glyph glyph-name="uni0206" unicode="&#x206;" horiz-adv-x="638" 
d="M207 747.5q-9 9.5 -9 22.5q0 8 3 14q19 38 56.5 60t84.5 22t84.5 -22t56.5 -60q3 -6 3 -14q0 -13 -9 -22.5t-23 -9.5q-20 0 -29 20q-11 23 -32.5 35.5t-50.5 12.5t-50.5 -12.5t-32.5 -35.5q-9 -20 -29 -20q-14 0 -23 9.5zM109.5 12.5q-13.5 13.5 -13.5 32.5v607
q0 19 13.5 33t32.5 14h401q18 0 31 -13t13 -31t-13 -30.5t-31 -12.5h-342q-12 0 -12 -12v-207h318q18 0 31 -13t13 -31t-13 -30.5t-31 -12.5h-318v-208q0 -12 12 -12h342q18 0 31 -13t13 -31t-13 -30.5t-31 -12.5h-401q-19 0 -32.5 13.5z" />
    <glyph glyph-name="Emacron" unicode="&#x112;" horiz-adv-x="638" 
d="M203 768q-9 9 -9 22t9 22t22 9h234q13 0 22 -9t9 -22t-9 -22t-22 -9h-234q-13 0 -22 9zM109.5 12.5q-13.5 13.5 -13.5 32.5v607q0 19 13.5 33t32.5 14h401q18 0 31 -13t13 -31t-13 -30.5t-31 -12.5h-342q-12 0 -12 -12v-207h318q18 0 31 -13t13 -31t-13 -30.5t-31 -12.5
h-318v-208q0 -12 12 -12h342q18 0 31 -13t13 -31t-13 -30.5t-31 -12.5h-401q-19 0 -32.5 13.5z" />
    <glyph glyph-name="uni1E16" unicode="&#x1e16;" horiz-adv-x="638" 
d="M322 866.5q-8 7.5 -8 20.5q0 8 7 20l51 89q10 20 34 20q16 0 27 -10.5t11 -27.5q0 -16 -10 -26l-69 -82q-9 -11 -23 -11q-12 0 -20 7.5zM203 768q-9 9 -9 22t9 22t22 9h234q13 0 22 -9t9 -22t-9 -22t-22 -9h-234q-13 0 -22 9zM109.5 12.5q-13.5 13.5 -13.5 32.5v607
q0 19 13.5 33t32.5 14h401q18 0 31 -13t13 -31t-13 -30.5t-31 -12.5h-342q-12 0 -12 -12v-207h318q18 0 31 -13t13 -31t-13 -30.5t-31 -12.5h-318v-208q0 -12 12 -12h342q18 0 31 -13t13 -31t-13 -30.5t-31 -12.5h-401q-19 0 -32.5 13.5z" />
    <glyph glyph-name="uni1E14" unicode="&#x1e14;" horiz-adv-x="638" 
d="M319 870l-69 82q-10 10 -10 26q0 18 10.5 28t27.5 10q24 0 34 -20l51 -89q7 -12 7 -20q0 -12 -7.5 -20t-20.5 -8q-14 0 -23 11zM203 768q-9 9 -9 22t9 22t22 9h234q13 0 22 -9t9 -22t-9 -22t-22 -9h-234q-13 0 -22 9zM109.5 12.5q-13.5 13.5 -13.5 32.5v607q0 19 13.5 33
t32.5 14h401q18 0 31 -13t13 -31t-13 -30.5t-31 -12.5h-342q-12 0 -12 -12v-207h318q18 0 31 -13t13 -31t-13 -30.5t-31 -12.5h-318v-208q0 -12 12 -12h342q18 0 31 -13t13 -31t-13 -30.5t-31 -12.5h-401q-19 0 -32.5 13.5z" />
    <glyph glyph-name="Eogonek" unicode="&#x118;" horiz-adv-x="638" 
d="M489 -42q-29 -27 -29 -57q0 -47 50 -47q16 0 35 6l3 1l6 1q10 0 16.5 -6.5t6.5 -16.5q0 -11 -11 -19q-36 -24 -87 -24q-39 0 -66.5 24t-27.5 61q0 68 82 118h-325q-19 0 -32.5 13.5t-13.5 32.5v607q0 19 13.5 33t32.5 14h401q18 0 31 -13t13 -31t-13 -30.5t-31 -12.5
h-342q-12 0 -12 -12v-207h318q18 0 31 -13t13 -31t-13 -30.5t-31 -12.5h-318v-208q0 -12 12 -12h342q18 0 31 -13t13 -31q0 -29 -29 -41q-40 -16 -69 -43z" />
    <glyph glyph-name="uni1EBC" unicode="&#x1ebc;" horiz-adv-x="638" 
d="M187.5 749q-7.5 7 -7.5 17q0 35 25 65.5t60 30.5q19 0 36 -5.5t44 -18.5q26 -13 41.5 -18t32.5 -5q13 0 21.5 6t14.5 20q8 22 26 22q10 0 16.5 -6.5t7.5 -16.5q0 -37 -24.5 -66.5t-60.5 -29.5q-18 0 -34.5 5.5t-47.5 19.5q-26 13 -41 18t-31 5q-25 0 -38 -31
q-6 -19 -24 -19q-9 0 -16.5 7zM109.5 12.5q-13.5 13.5 -13.5 32.5v607q0 19 13.5 33t32.5 14h401q18 0 31 -13t13 -31t-13 -30.5t-31 -12.5h-342q-12 0 -12 -12v-207h318q18 0 31 -13t13 -31t-13 -30.5t-31 -12.5h-318v-208q0 -12 12 -12h342q18 0 31 -13t13 -31t-13 -30.5
t-31 -12.5h-401q-19 0 -32.5 13.5z" />
    <glyph glyph-name="F" unicode="F" horiz-adv-x="608" 
d="M109.5 7.5q-13.5 13.5 -13.5 32.5v612q0 19 13.5 33t32.5 14h389q18 0 31 -13t13 -31t-13 -30.5t-31 -12.5h-330q-12 0 -12 -12v-207h307q18 0 31 -13t13 -31t-13 -30.5t-31 -12.5h-307v-266q0 -19 -14 -32.5t-33 -13.5t-32.5 13.5z" />
    <glyph glyph-name="G" unicode="G" horiz-adv-x="757" 
d="M223 35q-81 46 -125 127.5t-44 185.5q0 106 46 188t126 127.5t177 45.5q74 0 132.5 -18t116.5 -54q9 -4 15 -14.5t6 -22.5q0 -17 -12 -29.5t-31 -12.5q-9 0 -21 5q-48 28 -95 42t-101 14q-73 0 -137 -32q-62 -33 -95.5 -95t-33.5 -144q0 -77 33 -139q33 -63 95 -97.5
t143 -34.5q92 0 174 44v167q0 12 -12 12h-152q-17 0 -29.5 12.5t-12.5 29.5t12.5 29.5t29.5 12.5h197q20 0 34.5 -14.5t14.5 -34.5v-227q0 -21 -10 -37.5t-29 -25.5q-114 -56 -229 -56q-104 0 -183 46z" />
    <glyph glyph-name="uni01F4" unicode="&#x1f4;" horiz-adv-x="757" 
d="M383 755.5q-8 7.5 -8 20.5q0 8 7 20l51 89q10 20 34 20q16 0 27 -10.5t11 -27.5q0 -16 -10 -26l-69 -82q-9 -11 -23 -11q-12 0 -20 7.5zM223 35q-81 46 -125 127.5t-44 185.5q0 106 46 188t126 127.5t177 45.5q74 0 132.5 -18t116.5 -54q9 -4 15 -14.5t6 -22.5
q0 -17 -12 -29.5t-31 -12.5q-9 0 -21 5q-48 28 -95 42t-101 14q-73 0 -137 -32q-62 -33 -95.5 -95t-33.5 -144q0 -77 33 -139q33 -63 95 -97.5t143 -34.5q92 0 174 44v167q0 12 -12 12h-152q-17 0 -29.5 12.5t-12.5 29.5t12.5 29.5t29.5 12.5h197q20 0 34.5 -14.5
t14.5 -34.5v-227q0 -21 -10 -37.5t-29 -25.5q-114 -56 -229 -56q-104 0 -183 46z" />
    <glyph glyph-name="Gbreve" unicode="&#x11e;" horiz-adv-x="757" 
d="M321.5 769q-37.5 22 -56.5 60q-3 6 -3 14q0 13 9 22.5t23 9.5q20 0 29 -20q11 -23 32.5 -35.5t50.5 -12.5t50.5 12.5t32.5 35.5q9 20 29 20q14 0 23 -9.5t9 -22.5q0 -8 -3 -14q-19 -38 -56.5 -60t-84.5 -22t-84.5 22zM223 35q-81 46 -125 127.5t-44 185.5q0 106 46 188
t126 127.5t177 45.5q74 0 132.5 -18t116.5 -54q9 -4 15 -14.5t6 -22.5q0 -17 -12 -29.5t-31 -12.5q-9 0 -21 5q-48 28 -95 42t-101 14q-73 0 -137 -32q-62 -33 -95.5 -95t-33.5 -144q0 -77 33 -139q33 -63 95 -97.5t143 -34.5q92 0 174 44v167q0 12 -12 12h-152
q-17 0 -29.5 12.5t-12.5 29.5t12.5 29.5t29.5 12.5h197q20 0 34.5 -14.5t14.5 -34.5v-227q0 -21 -10 -37.5t-29 -25.5q-114 -56 -229 -56q-104 0 -183 46z" />
    <glyph glyph-name="Gcaron" unicode="&#x1e6;" horiz-adv-x="757" 
d="M346 758l-68 70q-8 10 -8 21t9.5 20.5t21.5 9.5q11 0 19 -7l78 -66q6 -4 8 -4q4 0 8 4l78 66q8 7 19 7q12 0 21.5 -9.5t9.5 -20.5t-8 -21l-68 -70q-19 -20 -41 -20h-38q-22 0 -41 20zM223 35q-81 46 -125 127.5t-44 185.5q0 106 46 188t126 127.5t177 45.5
q74 0 132.5 -18t116.5 -54q9 -4 15 -14.5t6 -22.5q0 -17 -12 -29.5t-31 -12.5q-9 0 -21 5q-48 28 -95 42t-101 14q-73 0 -137 -32q-62 -33 -95.5 -95t-33.5 -144q0 -77 33 -139q33 -63 95 -97.5t143 -34.5q92 0 174 44v167q0 12 -12 12h-152q-17 0 -29.5 12.5t-12.5 29.5
t12.5 29.5t29.5 12.5h197q20 0 34.5 -14.5t14.5 -34.5v-227q0 -21 -10 -37.5t-29 -25.5q-114 -56 -229 -56q-104 0 -183 46z" />
    <glyph glyph-name="Gcircumflex" unicode="&#x11c;" horiz-adv-x="757" 
d="M279.5 746.5q-9.5 9.5 -9.5 20.5t8 21l68 70q19 20 41 20h38q22 0 41 -20l68 -70q8 -10 8 -21t-9.5 -20.5t-21.5 -9.5q-11 0 -19 7l-78 66q-3 4 -8 4q-4 0 -8 -4l-78 -66q-8 -7 -19 -7q-12 0 -21.5 9.5zM223 35q-81 46 -125 127.5t-44 185.5q0 106 46 188t126 127.5
t177 45.5q74 0 132.5 -18t116.5 -54q9 -4 15 -14.5t6 -22.5q0 -17 -12 -29.5t-31 -12.5q-9 0 -21 5q-48 28 -95 42t-101 14q-73 0 -137 -32q-62 -33 -95.5 -95t-33.5 -144q0 -77 33 -139q33 -63 95 -97.5t143 -34.5q92 0 174 44v167q0 12 -12 12h-152q-17 0 -29.5 12.5
t-12.5 29.5t12.5 29.5t29.5 12.5h197q20 0 34.5 -14.5t14.5 -34.5v-227q0 -21 -10 -37.5t-29 -25.5q-114 -56 -229 -56q-104 0 -183 46z" />
    <glyph glyph-name="uni0122" unicode="&#x122;" horiz-adv-x="757" 
d="M223 35q-81 46 -125 127.5t-44 185.5q0 106 46 188t126 127.5t177 45.5q74 0 132.5 -18t116.5 -54q9 -4 15 -14.5t6 -22.5q0 -17 -12 -29.5t-31 -12.5q-9 0 -21 5q-48 28 -95 42t-101 14q-73 0 -137 -32q-62 -33 -95.5 -95t-33.5 -144q0 -77 33 -139q33 -63 95 -97.5
t143 -34.5q92 0 174 44v167q0 12 -12 12h-152q-17 0 -29.5 12.5t-12.5 29.5t12.5 29.5t29.5 12.5h197q20 0 34.5 -14.5t14.5 -34.5v-227q0 -21 -10 -37.5t-29 -25.5q-114 -56 -229 -56q-104 0 -183 46zM359.5 -257q-6.5 7 -6.5 17q0 13 12 22q23 14 33 26t10 28
q-21 0 -35 13.5t-14 35.5q0 21 15 36.5t36 15.5q22 0 36.5 -15.5t14.5 -38.5v-33q0 -68 -68 -109q-10 -5 -17 -5q-10 0 -16.5 7z" />
    <glyph glyph-name="Gdotaccent" unicode="&#x120;" horiz-adv-x="757" 
d="M369.5 761.5q-15.5 15.5 -15.5 36.5t15.5 36.5t36.5 15.5t36.5 -15.5t15.5 -36.5t-15.5 -36.5t-36.5 -15.5t-36.5 15.5zM223 35q-81 46 -125 127.5t-44 185.5q0 106 46 188t126 127.5t177 45.5q74 0 132.5 -18t116.5 -54q9 -4 15 -14.5t6 -22.5q0 -17 -12 -29.5
t-31 -12.5q-9 0 -21 5q-48 28 -95 42t-101 14q-73 0 -137 -32q-62 -33 -95.5 -95t-33.5 -144q0 -77 33 -139q33 -63 95 -97.5t143 -34.5q92 0 174 44v167q0 12 -12 12h-152q-17 0 -29.5 12.5t-12.5 29.5t12.5 29.5t29.5 12.5h197q20 0 34.5 -14.5t14.5 -34.5v-227
q0 -21 -10 -37.5t-29 -25.5q-114 -56 -229 -56q-104 0 -183 46z" />
    <glyph glyph-name="uni1E20" unicode="&#x1e20;" horiz-adv-x="757" 
d="M267 768q-9 9 -9 22t9 22t22 9h234q13 0 22 -9t9 -22t-9 -22t-22 -9h-234q-13 0 -22 9zM223 35q-81 46 -125 127.5t-44 185.5q0 106 46 188t126 127.5t177 45.5q74 0 132.5 -18t116.5 -54q9 -4 15 -14.5t6 -22.5q0 -17 -12 -29.5t-31 -12.5q-9 0 -21 5q-48 28 -95 42
t-101 14q-73 0 -137 -32q-62 -33 -95.5 -95t-33.5 -144q0 -77 33 -139q33 -63 95 -97.5t143 -34.5q92 0 174 44v167q0 12 -12 12h-152q-17 0 -29.5 12.5t-12.5 29.5t12.5 29.5t29.5 12.5h197q20 0 34.5 -14.5t14.5 -34.5v-227q0 -21 -10 -37.5t-29 -25.5q-114 -56 -229 -56
q-104 0 -183 46z" />
    <glyph glyph-name="H" unicode="H" horiz-adv-x="755" 
d="M109.5 7.5q-13.5 13.5 -13.5 32.5v617q0 19 13.5 33t32.5 14t33 -14t14 -33v-265h377v265q0 19 13.5 33t32.5 14t33 -14t14 -33v-617q0 -19 -14 -32.5t-33 -13.5t-32.5 13.5t-13.5 32.5v265h-377v-265q0 -19 -14 -32.5t-33 -13.5t-32.5 13.5z" />
    <glyph glyph-name="Hbar" unicode="&#x126;" horiz-adv-x="765" 
d="M114.5 7.5q-13.5 13.5 -13.5 32.5v470h-44q-15 0 -25.5 10.5t-10.5 25.5q0 16 11 26.5t25 10.5h44v74q0 19 13.5 33t32.5 14t33 -14t14 -33v-74h377v74q0 19 13.5 33t32.5 14t33 -14t14 -33v-74h43q15 0 26 -11t11 -26t-11 -25.5t-26 -10.5h-43v-470q0 -19 -14 -32.5
t-33 -13.5t-32.5 13.5t-13.5 32.5v265h-377v-265q0 -19 -14 -32.5t-33 -13.5t-32.5 13.5zM571 510h-377v-118h377v118z" />
    <glyph glyph-name="uni1E2A" unicode="&#x1e2a;" horiz-adv-x="755" 
d="M109.5 7.5q-13.5 13.5 -13.5 32.5v617q0 19 13.5 33t32.5 14t33 -14t14 -33v-265h377v265q0 19 13.5 33t32.5 14t33 -14t14 -33v-617q0 -19 -14 -32.5t-33 -13.5t-32.5 13.5t-13.5 32.5v265h-377v-265q0 -19 -14 -32.5t-33 -13.5t-32.5 13.5zM293.5 -161
q-37.5 22 -56.5 60q-3 6 -3 14q0 13 9 22.5t23 9.5q20 0 29 -20q11 -23 32.5 -35.5t50.5 -12.5t50.5 12.5t32.5 35.5q9 20 29 20q14 0 23 -9.5t9 -22.5q0 -8 -3 -14q-19 -38 -56.5 -60t-84.5 -22t-84.5 22z" />
    <glyph glyph-name="uni021E" unicode="&#x21e;" horiz-adv-x="755" 
d="M317 759l-68 70q-8 10 -8 21t9.5 20.5t21.5 9.5q11 0 19 -7l78 -66q6 -4 8 -4q4 0 8 4l78 66q8 7 19 7q12 0 21.5 -9.5t9.5 -20.5t-8 -21l-68 -70q-19 -20 -41 -20h-38q-22 0 -41 20zM109.5 7.5q-13.5 13.5 -13.5 32.5v617q0 19 13.5 33t32.5 14t33 -14t14 -33v-265h377
v265q0 19 13.5 33t32.5 14t33 -14t14 -33v-617q0 -19 -14 -32.5t-33 -13.5t-32.5 13.5t-13.5 32.5v265h-377v-265q0 -19 -14 -32.5t-33 -13.5t-32.5 13.5z" />
    <glyph glyph-name="Hcircumflex" unicode="&#x124;" horiz-adv-x="755" 
d="M251.5 746.5q-9.5 9.5 -9.5 20.5t8 21l68 70q19 20 41 20h38q22 0 41 -20l68 -70q8 -10 8 -21t-9.5 -20.5t-21.5 -9.5q-11 0 -19 7l-78 66q-3 4 -8 4q-4 0 -8 -4l-78 -66q-8 -7 -19 -7q-12 0 -21.5 9.5zM109.5 7.5q-13.5 13.5 -13.5 32.5v617q0 19 13.5 33t32.5 14
t33 -14t14 -33v-265h377v265q0 19 13.5 33t32.5 14t33 -14t14 -33v-617q0 -19 -14 -32.5t-33 -13.5t-32.5 13.5t-13.5 32.5v265h-377v-265q0 -19 -14 -32.5t-33 -13.5t-32.5 13.5z" />
    <glyph glyph-name="uni1E24" unicode="&#x1e24;" horiz-adv-x="755" 
d="M109.5 7.5q-13.5 13.5 -13.5 32.5v617q0 19 13.5 33t32.5 14t33 -14t14 -33v-265h377v265q0 19 13.5 33t32.5 14t33 -14t14 -33v-617q0 -19 -14 -32.5t-33 -13.5t-32.5 13.5t-13.5 32.5v265h-377v-265q0 -19 -14 -32.5t-33 -13.5t-32.5 13.5zM341.5 -151.5
q-15.5 15.5 -15.5 36.5t15.5 36.5t36.5 15.5t36.5 -15.5t15.5 -36.5t-15.5 -36.5t-36.5 -15.5t-36.5 15.5z" />
    <glyph glyph-name="I" unicode="I" horiz-adv-x="285" 
d="M109.5 7.5q-13.5 13.5 -13.5 32.5v617q0 19 13.5 33t32.5 14t33 -14t14 -33v-617q0 -19 -14 -32.5t-33 -13.5t-32.5 13.5z" />
    <glyph glyph-name="IJ" unicode="&#x132;" horiz-adv-x="751" 
d="M109.5 7.5q-13.5 13.5 -13.5 32.5v617q0 19 13.5 33t32.5 14t33 -14t14 -33v-617q0 -19 -14 -32.5t-33 -13.5t-32.5 13.5zM319 23q-22 14 -22 38q0 16 11 29t28 13q11 0 18 -4q45 -22 93 -22q58 0 89 33t31 114v433q0 19 13.5 33t32.5 14t33 -14t14 -33v-427
q0 -119 -52.5 -180t-154.5 -61q-73 0 -134 34z" />
    <glyph glyph-name="uni0049_uni030B" horiz-adv-x="285" 
d="M63 748q-8 7 -8 19q0 6 1 8l27 90q4 15 15 23.5t24 8.5q15 0 25.5 -9.5t10.5 -24.5q0 -11 -7 -25l-41 -79q-10 -18 -27 -18q-12 0 -20 7zM179 748q-8 7 -8 19q0 6 1 8l27 90q4 15 15 23.5t24 8.5q15 0 25.5 -9.5t10.5 -24.5q0 -11 -7 -25l-41 -79q-10 -18 -27 -18
q-12 0 -20 7zM109.5 7.5q-13.5 13.5 -13.5 32.5v617q0 19 13.5 33t32.5 14t33 -14t14 -33v-617q0 -19 -14 -32.5t-33 -13.5t-32.5 13.5z" />
    <glyph glyph-name="I_tildecomb" horiz-adv-x="285" 
d="M-3.5 754q-7.5 7 -7.5 17q0 35 25 65.5t60 30.5q19 0 36 -5.5t44 -18.5q26 -13 41.5 -18t32.5 -5q13 0 21.5 6t14.5 20q8 22 26 22q10 0 16.5 -6.5t7.5 -16.5q0 -37 -25 -66.5t-60 -29.5q-19 0 -35 5.5t-47 19.5q-26 13 -41 18t-31 5q-25 0 -38 -31q-6 -19 -24 -19
q-9 0 -16.5 7zM109.5 7.5q-13.5 13.5 -13.5 32.5v617q0 19 13.5 33t32.5 14t33 -14t14 -33v-617q0 -19 -14 -32.5t-33 -13.5t-32.5 13.5z" />
    <glyph glyph-name="uni0049_uni030D" horiz-adv-x="285" 
d="M115.5 934q9.5 10 27.5 10q17 0 27 -9.5t10 -27.5v-117q0 -17 -9.5 -27t-27.5 -10q-17 0 -27 9.5t-10 27.5v117q0 17 9.5 27zM109.5 7.5q-13.5 13.5 -13.5 32.5v617q0 19 13.5 33t32.5 14t33 -14t14 -33v-617q0 -19 -14 -32.5t-33 -13.5t-32.5 13.5z" />
    <glyph glyph-name="Iacute" unicode="&#xcd;" horiz-adv-x="285" 
d="M123 745.5q-8 7.5 -8 20.5q0 8 7 20l51 89q10 20 34 20q16 0 27 -10.5t11 -27.5q0 -16 -10 -26l-69 -82q-9 -11 -23 -11q-12 0 -20 7.5zM109.5 7.5q-13.5 13.5 -13.5 32.5v617q0 19 13.5 33t32.5 14t33 -14t14 -33v-617q0 -19 -14 -32.5t-33 -13.5t-32.5 13.5z" />
    <glyph glyph-name="Ibreve" unicode="&#x12c;" horiz-adv-x="285" 
d="M58.5 769q-37.5 22 -56.5 60q-3 6 -3 14q0 13 9 22.5t23 9.5q20 0 29 -20q11 -23 32.5 -35.5t50.5 -12.5t50.5 12.5t32.5 35.5q9 20 29 20q14 0 23 -9.5t9 -22.5q0 -8 -3 -14q-19 -38 -56.5 -60t-84.5 -22t-84.5 22zM109.5 7.5q-13.5 13.5 -13.5 32.5v617q0 19 13.5 33
t32.5 14t33 -14t14 -33v-617q0 -19 -14 -32.5t-33 -13.5t-32.5 13.5z" />
    <glyph glyph-name="uni01CF" unicode="&#x1cf;" horiz-adv-x="285" 
d="M83 773l-68 70q-8 10 -8 21t9.5 20.5t21.5 9.5q11 0 19 -7l78 -66q6 -4 8 -4q4 0 8 4l78 66q8 7 19 7q12 0 21.5 -9.5t9.5 -20.5t-8 -21l-68 -70q-19 -20 -41 -20h-38q-22 0 -41 20zM109.5 7.5q-13.5 13.5 -13.5 32.5v617q0 19 13.5 33t32.5 14t33 -14t14 -33v-617
q0 -19 -14 -32.5t-33 -13.5t-32.5 13.5z" />
    <glyph glyph-name="Icircumflex" unicode="&#xce;" horiz-adv-x="285" 
d="M16.5 746.5q-9.5 9.5 -9.5 20.5t8 21l68 70q19 20 41 20h38q22 0 41 -20l68 -70q8 -10 8 -21t-9.5 -20.5t-21.5 -9.5q-11 0 -19 7l-78 66q-3 4 -8 4q-4 0 -8 -4l-78 -66q-8 -7 -19 -7q-12 0 -21.5 9.5zM109.5 7.5q-13.5 13.5 -13.5 32.5v617q0 19 13.5 33t32.5 14t33 -14
t14 -33v-617q0 -19 -14 -32.5t-33 -13.5t-32.5 13.5z" />
    <glyph glyph-name="uni0208" unicode="&#x208;" horiz-adv-x="285" 
d="M46 745.5q-8 7.5 -8 20.5q0 8 7 20l51 89q10 20 34 20q16 0 27 -10.5t11 -27.5q0 -16 -10 -26l-69 -82q-9 -11 -23 -11q-12 0 -20 7.5zM200 745.5q-8 7.5 -8 20.5q0 8 7 20l51 89q10 20 34 20q16 0 27 -10.5t11 -27.5q0 -16 -10 -26l-69 -82q-9 -11 -23 -11
q-12 0 -20 7.5zM109.5 7.5q-13.5 13.5 -13.5 32.5v617q0 19 13.5 33t32.5 14t33 -14t14 -33v-617q0 -19 -14 -32.5t-33 -13.5t-32.5 13.5z" />
    <glyph glyph-name="Idieresis" unicode="&#xcf;" horiz-adv-x="285" 
d="M22.5 761.5q-15.5 15.5 -15.5 36.5t15.5 36.5t36.5 15.5t36.5 -15.5t15.5 -36.5t-15.5 -36.5t-36.5 -15.5t-36.5 15.5zM190.5 761.5q-15.5 15.5 -15.5 36.5t15.5 36.5t36.5 15.5t36.5 -15.5t15.5 -36.5t-15.5 -36.5t-36.5 -15.5t-36.5 15.5zM109.5 7.5
q-13.5 13.5 -13.5 32.5v617q0 19 13.5 33t32.5 14t33 -14t14 -33v-617q0 -19 -14 -32.5t-33 -13.5t-32.5 13.5z" />
    <glyph glyph-name="uni1E2E" unicode="&#x1e2e;" horiz-adv-x="285" 
d="M123 876.5q-8 7.5 -8 20.5q0 8 7 20l51 89q10 20 34 20q16 0 27 -10.5t11 -27.5q0 -16 -10 -26l-69 -82q-9 -11 -23 -11q-12 0 -20 7.5zM22.5 761.5q-15.5 15.5 -15.5 36.5t15.5 36.5t36.5 15.5t36.5 -15.5t15.5 -36.5t-15.5 -36.5t-36.5 -15.5t-36.5 15.5zM190.5 761.5
q-15.5 15.5 -15.5 36.5t15.5 36.5t36.5 15.5t36.5 -15.5t15.5 -36.5t-15.5 -36.5t-36.5 -15.5t-36.5 15.5zM109.5 7.5q-13.5 13.5 -13.5 32.5v617q0 19 13.5 33t32.5 14t33 -14t14 -33v-617q0 -19 -14 -32.5t-33 -13.5t-32.5 13.5z" />
    <glyph glyph-name="Idotaccent" unicode="&#x130;" horiz-adv-x="285" 
d="M106.5 761.5q-15.5 15.5 -15.5 36.5t15.5 36.5t36.5 15.5t36.5 -15.5t15.5 -36.5t-15.5 -36.5t-36.5 -15.5t-36.5 15.5zM109.5 7.5q-13.5 13.5 -13.5 32.5v617q0 19 13.5 33t32.5 14t33 -14t14 -33v-617q0 -19 -14 -32.5t-33 -13.5t-32.5 13.5z" />
    <glyph glyph-name="uni1ECA" unicode="&#x1eca;" horiz-adv-x="285" 
d="M109.5 7.5q-13.5 13.5 -13.5 32.5v617q0 19 13.5 33t32.5 14t33 -14t14 -33v-617q0 -19 -14 -32.5t-33 -13.5t-32.5 13.5zM106.5 -151.5q-15.5 15.5 -15.5 36.5t15.5 36.5t36.5 15.5t36.5 -15.5t15.5 -36.5t-15.5 -36.5t-36.5 -15.5t-36.5 15.5z" />
    <glyph glyph-name="Igrave" unicode="&#xcc;" horiz-adv-x="285" 
d="M120 749l-69 82q-10 10 -10 26q0 18 10.5 28t27.5 10q24 0 34 -20l51 -89q7 -12 7 -20q0 -12 -7.5 -20t-20.5 -8q-14 0 -23 11zM109.5 7.5q-13.5 13.5 -13.5 32.5v617q0 19 13.5 33t32.5 14t33 -14t14 -33v-617q0 -19 -14 -32.5t-33 -13.5t-32.5 13.5z" />
    <glyph glyph-name="uni1EC8" unicode="&#x1ec8;" horiz-adv-x="285" 
d="M119 743q-7 6 -7 16q0 17 9 28.5t30 24.5q17 11 24 18.5t7 17.5q0 11 -9 17t-25 6q-24 0 -44 -9q-19 -9 -23 -9q-9 0 -15.5 6.5t-6.5 15.5q0 12 11 20q32 20 78 20q38 0 60.5 -17.5t22.5 -48.5q0 -21 -9 -34.5t-31 -29.5q-25 -17 -31 -32q-6 -16 -24 -16q-10 0 -17 6z
M109.5 7.5q-13.5 13.5 -13.5 32.5v617q0 19 13.5 33t32.5 14t33 -14t14 -33v-617q0 -19 -14 -32.5t-33 -13.5t-32.5 13.5z" />
    <glyph glyph-name="uni020A" unicode="&#x20a;" horiz-adv-x="285" 
d="M8 747.5q-9 9.5 -9 22.5q0 8 3 14q19 38 56.5 60t84.5 22t84.5 -22t56.5 -60q3 -6 3 -14q0 -13 -9 -22.5t-23 -9.5q-20 0 -29 20q-11 23 -32.5 35.5t-50.5 12.5t-50.5 -12.5t-32.5 -35.5q-9 -20 -29 -20q-14 0 -23 9.5zM109.5 7.5q-13.5 13.5 -13.5 32.5v617
q0 19 13.5 33t32.5 14t33 -14t14 -33v-617q0 -19 -14 -32.5t-33 -13.5t-32.5 13.5z" />
    <glyph glyph-name="Imacron" unicode="&#x12a;" horiz-adv-x="297" 
d="M36 768q-9 9 -9 22t9 22t22 9h182q13 0 22 -9t9 -22t-9 -22t-22 -9h-182q-13 0 -22 9zM115.5 7.5q-13.5 13.5 -13.5 32.5v617q0 19 13.5 33t32.5 14t33 -14t14 -33v-617q0 -19 -14 -32.5t-33 -13.5t-32.5 13.5z" />
    <glyph glyph-name="Iogonek" unicode="&#x12e;" horiz-adv-x="285" 
d="M74 -178q-29 26 -29 69q0 33 18 62t51 51q-18 15 -18 36v617q0 19 13.5 33t32.5 14t33 -14t14 -33v-607q0 -22 -12 -41q-4 -6 -13 -15q-24 -28 -34 -46t-10 -45q0 -24 13 -36.5t37 -12.5q16 0 35 6l3 1l6 1q10 0 16.5 -6.5t6.5 -16.5q0 -11 -11 -19q-34 -24 -77 -24
q-46 0 -75 26z" />
    <glyph glyph-name="uni0197" unicode="&#x197;" horiz-adv-x="285" 
d="M276.5 404.5q10.5 -10.5 10.5 -24.5q0 -15 -10 -24.5t-25 -9.5h-63v-306q0 -19 -14 -32.5t-33 -13.5t-32.5 13.5t-13.5 32.5v306h-58q-15 0 -25 9.5t-10 24.5q0 14 10.5 24.5t24.5 10.5h58v242q0 19 13.5 33t32.5 14t33 -14t14 -33v-242h63q14 0 24.5 -10.5z" />
    <glyph glyph-name="Itilde" unicode="&#x128;" horiz-adv-x="285" 
d="M-11.5 749q-7.5 7 -7.5 17q0 35 25 65.5t60 30.5q19 0 36 -5.5t44 -18.5q26 -13 41.5 -18t32.5 -5q13 0 21.5 6t14.5 20q8 22 26 22q10 0 16.5 -6.5t7.5 -16.5q0 -37 -24.5 -66.5t-60.5 -29.5q-18 0 -34.5 5.5t-47.5 19.5q-26 13 -41 18t-31 5q-25 0 -38 -31
q-6 -19 -24 -19q-9 0 -16.5 7zM109.5 7.5q-13.5 13.5 -13.5 32.5v617q0 19 13.5 33t32.5 14t33 -14t14 -33v-617q0 -19 -14 -32.5t-33 -13.5t-32.5 13.5z" />
    <glyph glyph-name="J" unicode="J" horiz-adv-x="466" 
d="M34 23q-22 14 -22 38q0 16 11 29t28 13q11 0 18 -4q45 -22 93 -22q58 0 89 33t31 114v433q0 19 13.5 33t32.5 14t33 -14t14 -33v-427q0 -119 -52.5 -180t-154.5 -61q-73 0 -134 34z" />
    <glyph glyph-name="Jcircumflex" unicode="&#x134;" horiz-adv-x="466" 
d="M201.5 746.5q-9.5 9.5 -9.5 20.5t8 21l68 70q19 20 41 20h38q22 0 41 -20l68 -70q8 -10 8 -21t-9.5 -20.5t-21.5 -9.5q-11 0 -19 7l-78 66q-3 4 -8 4q-4 0 -8 -4l-78 -66q-8 -7 -19 -7q-12 0 -21.5 9.5zM34 23q-22 14 -22 38q0 16 11 29t28 13q11 0 18 -4q45 -22 93 -22
q58 0 89 33t31 114v433q0 19 13.5 33t32.5 14t33 -14t14 -33v-427q0 -119 -52.5 -180t-154.5 -61q-73 0 -134 34z" />
    <glyph glyph-name="K" unicode="K" horiz-adv-x="670" 
d="M109.5 7.5q-13.5 13.5 -13.5 32.5v617q0 19 13.5 33t32.5 14t33 -14t14 -33v-316l340 347q13 16 35 16q18 0 30.5 -11.5t12.5 -29.5q0 -19 -11 -32l-231 -229l265 -333q11 -14 11 -32t-13.5 -30.5t-31.5 -12.5q-22 0 -37 18l-257 328l-113 -113v-187q0 -19 -14 -32.5
t-33 -13.5t-32.5 13.5z" />
    <glyph glyph-name="uni01E8" unicode="&#x1e8;" horiz-adv-x="670" 
d="M272 762l-68 70q-8 10 -8 21t9.5 20.5t21.5 9.5q11 0 19 -7l78 -66q6 -4 8 -4q4 0 8 4l78 66q8 7 19 7q12 0 21.5 -9.5t9.5 -20.5t-8 -21l-68 -70q-19 -20 -41 -20h-38q-22 0 -41 20zM109.5 7.5q-13.5 13.5 -13.5 32.5v617q0 19 13.5 33t32.5 14t33 -14t14 -33v-316
l340 347q13 16 35 16q18 0 30.5 -11.5t12.5 -29.5q0 -19 -11 -32l-231 -229l265 -333q11 -14 11 -32t-13.5 -30.5t-31.5 -12.5q-22 0 -37 18l-257 328l-113 -113v-187q0 -19 -14 -32.5t-33 -13.5t-32.5 13.5z" />
    <glyph glyph-name="uni0136" unicode="&#x136;" horiz-adv-x="670" 
d="M109.5 7.5q-13.5 13.5 -13.5 32.5v617q0 19 13.5 33t32.5 14t33 -14t14 -33v-316l340 347q13 16 35 16q18 0 30.5 -11.5t12.5 -29.5q0 -19 -11 -32l-231 -229l265 -333q11 -14 11 -32t-13.5 -30.5t-31.5 -12.5q-22 0 -37 18l-257 328l-113 -113v-187q0 -19 -14 -32.5
t-33 -13.5t-32.5 13.5zM288.5 -257q-6.5 7 -6.5 17q0 13 12 22q23 14 33 26t10 28q-21 0 -35 13.5t-14 35.5q0 21 15 36.5t36 15.5q22 0 36.5 -15.5t14.5 -38.5v-33q0 -68 -68 -109q-10 -5 -17 -5q-10 0 -16.5 7z" />
    <glyph glyph-name="L" unicode="L" horiz-adv-x="576" 
d="M115 18q-19 19 -19 45v594q0 19 13.5 33t32.5 14t33 -14t14 -33v-553q0 -12 12 -12h314q19 0 33 -14t14 -33t-14 -32.5t-33 -13.5h-355q-26 0 -45 19z" />
    <glyph glyph-name="uni01C7" unicode="&#x1c7;" horiz-adv-x="1042" 
d="M115 18q-19 19 -19 45v594q0 19 13.5 33t32.5 14t33 -14t14 -33v-553q0 -12 12 -12h314q19 0 33 -14t14 -33t-14 -32.5t-33 -13.5h-355q-26 0 -45 19zM610 23q-22 14 -22 38q0 16 11 29t28 13q11 0 18 -4q45 -22 93 -22q58 0 89 33t31 114v433q0 19 13.5 33t32.5 14
t33 -14t14 -33v-427q0 -119 -52.5 -180t-154.5 -61q-73 0 -134 34z" />
    <glyph glyph-name="Lacute" unicode="&#x139;" horiz-adv-x="576" 
d="M122 745.5q-8 7.5 -8 20.5q0 8 7 20l51 89q10 20 34 20q16 0 27 -10.5t11 -27.5q0 -16 -10 -26l-69 -82q-9 -11 -23 -11q-12 0 -20 7.5zM115 18q-19 19 -19 45v594q0 19 13.5 33t32.5 14t33 -14t14 -33v-553q0 -12 12 -12h314q19 0 33 -14t14 -33t-14 -32.5t-33 -13.5
h-355q-26 0 -45 19z" />
    <glyph glyph-name="Lcaron" unicode="&#x13d;" horiz-adv-x="576" 
d="M115 18q-19 19 -19 45v594q0 19 13.5 33t32.5 14t33 -14t14 -33v-553q0 -12 12 -12h314q19 0 33 -14t14 -33t-14 -32.5t-33 -13.5h-355q-26 0 -45 19zM307.5 492.5q-7.5 7.5 -7.5 19.5q0 11 15 24q22 16 31 27t9 28q-24 0 -39.5 15t-15.5 38q0 24 16.5 41t40.5 17t40 -17
t16 -42v-37q0 -32 -14.5 -54t-31.5 -38t-23 -22q-8 -7 -20 -7q-9 0 -16.5 7.5z" />
    <glyph glyph-name="uni013B" unicode="&#x13b;" horiz-adv-x="576" 
d="M115 18q-19 19 -19 45v594q0 19 13.5 33t32.5 14t33 -14t14 -33v-553q0 -12 12 -12h314q19 0 33 -14t14 -33t-14 -32.5t-33 -13.5h-355q-26 0 -45 19zM282.5 -257q-6.5 7 -6.5 17q0 13 12 22q23 14 33 26t10 28q-21 0 -35 13.5t-14 35.5q0 21 15 36.5t36 15.5
q22 0 36.5 -15.5t14.5 -38.5v-33q0 -68 -68 -109q-10 -5 -17 -5q-10 0 -16.5 7z" />
    <glyph glyph-name="Ldot" unicode="&#x13f;" horiz-adv-x="576" 
d="M115 18q-19 19 -19 45v594q0 19 13.5 33t32.5 14t33 -14t14 -33v-553q0 -12 12 -12h314q19 0 33 -14t14 -33t-14 -32.5t-33 -13.5h-355q-26 0 -45 19zM377 352q-17 17 -17 40v6q0 23 17 40t40 17h10q23 0 40 -17t17 -40v-6q0 -23 -17 -40t-40 -17h-10q-23 0 -40 17z" />
    <glyph glyph-name="uni1E36" unicode="&#x1e36;" horiz-adv-x="576" 
d="M115 18q-19 19 -19 45v594q0 19 13.5 33t32.5 14t33 -14t14 -33v-553q0 -12 12 -12h314q19 0 33 -14t14 -33t-14 -32.5t-33 -13.5h-355q-26 0 -45 19zM292.5 -151.5q-15.5 15.5 -15.5 36.5t15.5 36.5t36.5 15.5t36.5 -15.5t15.5 -36.5t-15.5 -36.5t-36.5 -15.5
t-36.5 15.5z" />
    <glyph glyph-name="uni01C8" unicode="&#x1c8;" horiz-adv-x="830" 
d="M666.5 628.5q-15.5 15.5 -15.5 36.5v4q0 21 15.5 36.5t36.5 15.5h6q21 0 36.5 -15.5t15.5 -36.5v-4q0 -21 -15.5 -36.5t-36.5 -15.5h-6q-21 0 -36.5 15.5zM115 18q-19 19 -19 45v594q0 19 13.5 33t32.5 14t33 -14t14 -33v-553q0 -12 12 -12h314q19 0 33 -14t14 -33
t-14 -32.5t-33 -13.5h-355q-26 0 -45 19zM557 -232q-13 4 -20 14t-7 23q0 15 11.5 27t27.5 12l12 -2h3q6 -1 15 -1q33 0 46.5 12t13.5 46v569q0 19 13.5 33t32.5 14q20 0 33.5 -13.5t13.5 -33.5v-571q0 -67 -33.5 -102.5t-98.5 -35.5q-36 0 -63 9z" />
    <glyph glyph-name="uni1E3A" unicode="&#x1e3a;" horiz-adv-x="576" 
d="M115 18q-19 19 -19 45v594q0 19 13.5 33t32.5 14t33 -14t14 -33v-553q0 -12 12 -12h314q19 0 33 -14t14 -33t-14 -32.5t-33 -13.5h-355q-26 0 -45 19zM190 -129q-9 9 -9 22t9 22t22 9h234q13 0 22 -9t9 -22t-9 -22t-22 -9h-234q-13 0 -22 9z" />
    <glyph glyph-name="Lslash" unicode="&#x141;" horiz-adv-x="581" 
d="M120 18q-19 19 -19 45v237l-15 -16q-14 -14 -31 -14q-15 0 -25 9.5t-10 24.5q0 17 14 31l67 66v256q0 19 13.5 33t32.5 14t33 -14t14 -33v-162l58 59q14 12 28 12t25 -11t11 -25q0 -16 -14 -30l-108 -107v-289q0 -12 12 -12h314q19 0 33 -14t14 -33t-14 -32.5t-33 -13.5
h-355q-26 0 -45 19z" />
    <glyph glyph-name="M" unicode="M" horiz-adv-x="966" 
d="M109.5 7.5q-13.5 13.5 -13.5 32.5v597q0 27 19.5 47t46.5 20h33q19 0 36 -11.5t26 -31.5l218 -544q3 -7 8 -7t8 7l218 544q9 20 26 31.5t36 11.5h33q27 0 46.5 -20t19.5 -47v-597q0 -19 -13.5 -32.5t-32.5 -13.5t-33 13.5t-14 32.5v528q0 9 -6 9q-4 0 -7 -6l-216 -534
q-8 -19 -26 -31t-39 -12t-39 12t-26 31l-216 534q-3 6 -7 6q-6 0 -6 -9v-528q0 -19 -14 -32.5t-33 -13.5t-32.5 13.5z" />
    <glyph glyph-name="M_gravecomb" horiz-adv-x="966" 
d="M460 701l-69 82q-10 15 -10 26q0 18 10.5 28t27.5 10q24 0 34 -20l51 -89q7 -12 7 -20q0 -12 -7.5 -20t-20.5 -8q-14 0 -23 11zM109.5 7.5q-13.5 13.5 -13.5 32.5v597q0 27 19.5 47t46.5 20h33q19 0 36 -11.5t26 -31.5l218 -544q3 -7 8 -7t8 7l218 544q9 20 26 31.5
t36 11.5h33q27 0 46.5 -20t19.5 -47v-597q0 -19 -13.5 -32.5t-32.5 -13.5t-33 13.5t-14 32.5v528q0 9 -6 9q-4 0 -7 -6l-216 -534q-8 -19 -26 -31t-39 -12t-39 12t-26 31l-216 534q-3 6 -7 6q-6 0 -6 -9v-528q0 -19 -14 -32.5t-33 -13.5t-32.5 13.5z" />
    <glyph glyph-name="M_acutecomb" horiz-adv-x="966" 
d="M463 697.5q-8 7.5 -8 20.5q0 8 7 20l51 89q10 20 34 20q16 0 27 -10.5t11 -27.5q0 -16 -10 -26l-69 -82q-9 -11 -23 -11q-12 0 -20 7.5zM109.5 7.5q-13.5 13.5 -13.5 32.5v597q0 27 19.5 47t46.5 20h33q19 0 36 -11.5t26 -31.5l218 -544q3 -7 8 -7t8 7l218 544
q9 20 26 31.5t36 11.5h33q27 0 46.5 -20t19.5 -47v-597q0 -19 -13.5 -32.5t-32.5 -13.5t-33 13.5t-14 32.5v528q0 9 -6 9q-4 0 -7 -6l-216 -534q-8 -19 -26 -31t-39 -12t-39 12t-26 31l-216 534q-3 6 -7 6q-6 0 -6 -9v-528q0 -19 -14 -32.5t-33 -13.5t-32.5 13.5z" />
    <glyph glyph-name="uni004D_uni030B" horiz-adv-x="966" 
d="M403 695q-8 7 -8 19q0 6 1 8l27 90q4 15 15 23.5t24 8.5q15 0 25.5 -9.5t10.5 -24.5q0 -11 -7 -25l-41 -79q-10 -18 -27 -18q-12 0 -20 7zM519 695q-8 7 -8 19q0 6 1 8l27 90q4 15 15 23.5t24 8.5q15 0 25.5 -9.5t10.5 -24.5q0 -11 -7 -25l-41 -79q-10 -18 -27 -18
q-12 0 -20 7zM109.5 7.5q-13.5 13.5 -13.5 32.5v597q0 27 19.5 47t46.5 20h33q19 0 36 -11.5t26 -31.5l218 -544q3 -7 8 -7t8 7l218 544q9 20 26 31.5t36 11.5h33q27 0 46.5 -20t19.5 -47v-597q0 -19 -13.5 -32.5t-32.5 -13.5t-33 13.5t-14 32.5v528q0 9 -6 9q-4 0 -7 -6
l-216 -534q-8 -19 -26 -31t-39 -12t-39 12t-26 31l-216 534q-3 6 -7 6q-6 0 -6 -9v-528q0 -19 -14 -32.5t-33 -13.5t-32.5 13.5z" />
    <glyph glyph-name="uni004D_uni0302" horiz-adv-x="966" 
d="M355.5 694.5q-9.5 9.5 -9.5 20.5t8 21l68 70q19 20 41 20h38q22 0 41 -20l68 -70q8 -10 8 -21t-9.5 -20.5t-21.5 -9.5q-11 0 -19 7l-78 66q-3 4 -8 4q-4 0 -8 -4l-78 -66q-8 -7 -19 -7q-12 0 -21.5 9.5zM109.5 7.5q-13.5 13.5 -13.5 32.5v597q0 27 19.5 47t46.5 20h33
q19 0 36 -11.5t26 -31.5l218 -544q3 -7 8 -7t8 7l218 544q9 20 26 31.5t36 11.5h33q27 0 46.5 -20t19.5 -47v-597q0 -19 -13.5 -32.5t-32.5 -13.5t-33 13.5t-14 32.5v528q0 9 -6 9q-4 0 -7 -6l-216 -534q-8 -19 -26 -31t-39 -12t-39 12t-26 31l-216 534q-3 6 -7 6
q-6 0 -6 -9v-528q0 -19 -14 -32.5t-33 -13.5t-32.5 13.5z" />
    <glyph glyph-name="uni004D_uni030C" horiz-adv-x="966" 
d="M421 709l-68 70q-8 10 -8 21t9.5 20.5t21.5 9.5q11 0 19 -7l78 -66q6 -4 8 -4q4 0 8 4l78 66q8 7 19 7q12 0 21.5 -9.5t9.5 -20.5t-8 -21l-68 -70q-19 -20 -41 -20h-38q-22 0 -41 20zM109.5 7.5q-13.5 13.5 -13.5 32.5v597q0 27 19.5 47t46.5 20h33q19 0 36 -11.5
t26 -31.5l218 -544q3 -7 8 -7t8 7l218 544q9 20 26 31.5t36 11.5h33q27 0 46.5 -20t19.5 -47v-597q0 -19 -13.5 -32.5t-32.5 -13.5t-33 13.5t-14 32.5v528q0 9 -6 9q-4 0 -7 -6l-216 -534q-8 -19 -26 -31t-39 -12t-39 12t-26 31l-216 534q-3 6 -7 6q-6 0 -6 -9v-528
q0 -19 -14 -32.5t-33 -13.5t-32.5 13.5z" />
    <glyph glyph-name="uni004D_uni0306" horiz-adv-x="966" 
d="M398.5 713q-37.5 22 -56.5 60q-3 6 -3 14q0 13 9 22.5t23 9.5q20 0 29 -20q11 -23 32.5 -35.5t50.5 -12.5t50.5 12.5t32.5 35.5q9 20 29 20q14 0 23 -9.5t9 -22.5q0 -8 -3 -14q-19 -38 -56.5 -60t-84.5 -22t-84.5 22zM109.5 7.5q-13.5 13.5 -13.5 32.5v597q0 27 19.5 47
t46.5 20h33q19 0 36 -11.5t26 -31.5l218 -544q3 -7 8 -7t8 7l218 544q9 20 26 31.5t36 11.5h33q27 0 46.5 -20t19.5 -47v-597q0 -19 -13.5 -32.5t-32.5 -13.5t-33 13.5t-14 32.5v528q0 9 -6 9q-4 0 -7 -6l-216 -534q-8 -19 -26 -31t-39 -12t-39 12t-26 31l-216 534
q-3 6 -7 6q-6 0 -6 -9v-528q0 -19 -14 -32.5t-33 -13.5t-32.5 13.5z" />
    <glyph glyph-name="uni004D_uni0304" horiz-adv-x="966" 
d="M344 734q-9 9 -9 22t9 22t22 9h234q13 0 22 -9t9 -22t-9 -22t-22 -9h-234q-13 0 -22 9zM109.5 7.5q-13.5 13.5 -13.5 32.5v597q0 27 19.5 47t46.5 20h33q19 0 36 -11.5t26 -31.5l218 -544q3 -7 8 -7t8 7l218 544q9 20 26 31.5t36 11.5h33q27 0 46.5 -20t19.5 -47v-597
q0 -19 -13.5 -32.5t-32.5 -13.5t-33 13.5t-14 32.5v528q0 9 -6 9q-4 0 -7 -6l-216 -534q-8 -19 -26 -31t-39 -12t-39 12t-26 31l-216 534q-3 6 -7 6q-6 0 -6 -9v-528q0 -19 -14 -32.5t-33 -13.5t-32.5 13.5z" />
    <glyph glyph-name="uni004D_uni030D" horiz-adv-x="966" 
d="M455.5 881q9.5 10 27.5 10q17 0 27 -9.5t10 -27.5v-117q0 -17 -9.5 -27t-27.5 -10q-17 0 -27 9.5t-10 27.5v117q0 17 9.5 27zM109.5 7.5q-13.5 13.5 -13.5 32.5v597q0 27 19.5 47t46.5 20h33q19 0 36 -11.5t26 -31.5l218 -544q3 -7 8 -7t8 7l218 544q9 20 26 31.5
t36 11.5h33q27 0 46.5 -20t19.5 -47v-597q0 -19 -13.5 -32.5t-32.5 -13.5t-33 13.5t-14 32.5v528q0 9 -6 9q-4 0 -7 -6l-216 -534q-8 -19 -26 -31t-39 -12t-39 12t-26 31l-216 534q-3 6 -7 6q-6 0 -6 -9v-528q0 -19 -14 -32.5t-33 -13.5t-32.5 13.5z" />
    <glyph glyph-name="uni1E3E" unicode="&#x1e3e;" horiz-adv-x="966" 
d="M463 697.5q-8 7.5 -8 20.5q0 8 7 20l51 89q10 20 34 20q16 0 27 -10.5t11 -27.5q0 -16 -10 -26l-69 -82q-9 -11 -23 -11q-12 0 -20 7.5zM109.5 7.5q-13.5 13.5 -13.5 32.5v597q0 27 19.5 47t46.5 20h33q19 0 36 -11.5t26 -31.5l218 -544q3 -7 8 -7t8 7l218 544
q9 20 26 31.5t36 11.5h33q27 0 46.5 -20t19.5 -47v-597q0 -19 -13.5 -32.5t-32.5 -13.5t-33 13.5t-14 32.5v528q0 9 -6 9q-4 0 -7 -6l-216 -534q-8 -19 -26 -31t-39 -12t-39 12t-26 31l-216 534q-3 6 -7 6q-6 0 -6 -9v-528q0 -19 -14 -32.5t-33 -13.5t-32.5 13.5z" />
    <glyph glyph-name="uni1E42" unicode="&#x1e42;" horiz-adv-x="966" 
d="M109.5 7.5q-13.5 13.5 -13.5 32.5v597q0 27 19.5 47t46.5 20h33q19 0 36 -11.5t26 -31.5l218 -544q3 -7 8 -7t8 7l218 544q9 20 26 31.5t36 11.5h33q27 0 46.5 -20t19.5 -47v-597q0 -19 -13.5 -32.5t-32.5 -13.5t-33 13.5t-14 32.5v528q0 9 -6 9q-4 0 -7 -6l-216 -534
q-8 -19 -26 -31t-39 -12t-39 12t-26 31l-216 534q-3 6 -7 6q-6 0 -6 -9v-528q0 -19 -14 -32.5t-33 -13.5t-32.5 13.5zM446.5 -151.5q-15.5 15.5 -15.5 36.5t15.5 36.5t36.5 15.5t36.5 -15.5t15.5 -36.5t-15.5 -36.5t-36.5 -15.5t-36.5 15.5z" />
    <glyph glyph-name="N" unicode="N" horiz-adv-x="803" 
d="M109.5 7.5q-13.5 13.5 -13.5 32.5v597q0 27 19.5 47t46.5 20h13q32 0 56 -30l369 -533q5 -6 8 -6q2 0 4 3t2 7v512q0 19 13.5 33t32.5 14t33 -14t14 -33v-597q0 -27 -20 -46.5t-47 -19.5h-12q-16 0 -30.5 7.5t-23.5 19.5l-371 536q-5 6 -8 6q-2 0 -4 -3t-2 -7v-513
q0 -19 -14 -32.5t-33 -13.5t-32.5 13.5z" />
    <glyph glyph-name="uni01CA" unicode="&#x1ca;" horiz-adv-x="1269" 
d="M109.5 7.5q-13.5 13.5 -13.5 32.5v597q0 27 19.5 47t46.5 20h13q32 0 56 -30l369 -533q5 -6 8 -6q2 0 4 3t2 7v512q0 19 13.5 33t32.5 14t33 -14t14 -33v-597q0 -27 -20 -46.5t-47 -19.5h-12q-16 0 -30.5 7.5t-23.5 19.5l-371 536q-5 6 -8 6q-2 0 -4 -3t-2 -7v-513
q0 -19 -14 -32.5t-33 -13.5t-32.5 13.5zM837 23q-22 14 -22 38q0 16 11 29t28 13q11 0 18 -4q45 -22 93 -22q58 0 89 33t31 114v433q0 19 13.5 33t32.5 14t33 -14t14 -33v-427q0 -119 -52.5 -180t-154.5 -61q-73 0 -134 34z" />
    <glyph glyph-name="N_gravecomb" horiz-adv-x="803" 
d="M371 743l-69 82q-10 15 -10 26q0 18 10.5 28t27.5 10q24 0 34 -20l51 -89q7 -12 7 -20q0 -12 -7.5 -20t-20.5 -8q-14 0 -23 11zM109.5 7.5q-13.5 13.5 -13.5 32.5v597q0 27 19.5 47t46.5 20h13q32 0 56 -30l369 -533q5 -6 8 -6q2 0 4 3t2 7v512q0 19 13.5 33t32.5 14
t33 -14t14 -33v-597q0 -27 -20 -46.5t-47 -19.5h-12q-16 0 -30.5 7.5t-23.5 19.5l-371 536q-5 6 -8 6q-2 0 -4 -3t-2 -7v-513q0 -19 -14 -32.5t-33 -13.5t-32.5 13.5z" />
    <glyph glyph-name="N_acutecomb" horiz-adv-x="803" 
d="M374 739.5q-8 7.5 -8 20.5q0 8 7 20l51 89q10 20 34 20q16 0 27 -10.5t11 -27.5q0 -16 -10 -26l-69 -82q-9 -11 -23 -11q-12 0 -20 7.5zM109.5 7.5q-13.5 13.5 -13.5 32.5v597q0 27 19.5 47t46.5 20h13q32 0 56 -30l369 -533q5 -6 8 -6q2 0 4 3t2 7v512q0 19 13.5 33
t32.5 14t33 -14t14 -33v-597q0 -27 -20 -46.5t-47 -19.5h-12q-16 0 -30.5 7.5t-23.5 19.5l-371 536q-5 6 -8 6q-2 0 -4 -3t-2 -7v-513q0 -19 -14 -32.5t-33 -13.5t-32.5 13.5z" />
    <glyph glyph-name="uni004E_uni030B" horiz-adv-x="803" 
d="M314 737q-8 7 -8 19q0 6 1 8l27 90q4 15 15 23.5t24 8.5q15 0 25.5 -9.5t10.5 -24.5q0 -11 -7 -25l-41 -79q-10 -18 -27 -18q-12 0 -20 7zM430 737q-8 7 -8 19q0 6 1 8l27 90q4 15 15 23.5t24 8.5q15 0 25.5 -9.5t10.5 -24.5q0 -11 -7 -25l-41 -79q-10 -18 -27 -18
q-12 0 -20 7zM109.5 7.5q-13.5 13.5 -13.5 32.5v597q0 27 19.5 47t46.5 20h13q32 0 56 -30l369 -533q5 -6 8 -6q2 0 4 3t2 7v512q0 19 13.5 33t32.5 14t33 -14t14 -33v-597q0 -27 -20 -46.5t-47 -19.5h-12q-16 0 -30.5 7.5t-23.5 19.5l-371 536q-5 6 -8 6q-2 0 -4 -3t-2 -7
v-513q0 -19 -14 -32.5t-33 -13.5t-32.5 13.5z" />
    <glyph glyph-name="uni004E_uni0302" horiz-adv-x="803" 
d="M267.5 751.5q-9.5 9.5 -9.5 20.5t8 21l68 70q19 20 41 20h38q22 0 41 -20l68 -70q8 -10 8 -21t-9.5 -20.5t-21.5 -9.5q-11 0 -19 7l-78 66q-3 4 -8 4q-4 0 -8 -4l-78 -66q-8 -7 -19 -7q-12 0 -21.5 9.5zM109.5 7.5q-13.5 13.5 -13.5 32.5v597q0 27 19.5 47t46.5 20h13
q32 0 56 -30l369 -533q5 -6 8 -6q2 0 4 3t2 7v512q0 19 13.5 33t32.5 14t33 -14t14 -33v-597q0 -27 -20 -46.5t-47 -19.5h-12q-16 0 -30.5 7.5t-23.5 19.5l-371 536q-5 6 -8 6q-2 0 -4 -3t-2 -7v-513q0 -19 -14 -32.5t-33 -13.5t-32.5 13.5z" />
    <glyph glyph-name="uni004E_uni030C" horiz-adv-x="803" 
d="M334 762l-68 70q-8 10 -8 21t9.5 20.5t21.5 9.5q11 0 19 -7l78 -66q6 -4 8 -4q4 0 8 4l78 66q8 7 19 7q12 0 21.5 -9.5t9.5 -20.5t-8 -21l-68 -70q-19 -20 -41 -20h-38q-22 0 -41 20zM109.5 7.5q-13.5 13.5 -13.5 32.5v597q0 27 19.5 47t46.5 20h13q32 0 56 -30l369 -533
q5 -6 8 -6q2 0 4 3t2 7v512q0 19 13.5 33t32.5 14t33 -14t14 -33v-597q0 -27 -20 -46.5t-47 -19.5h-12q-16 0 -30.5 7.5t-23.5 19.5l-371 536q-5 6 -8 6q-2 0 -4 -3t-2 -7v-513q0 -19 -14 -32.5t-33 -13.5t-32.5 13.5z" />
    <glyph glyph-name="uni004E_uni0306" horiz-adv-x="803" 
d="M309.5 755q-37.5 22 -56.5 60q-3 6 -3 14q0 13 9 22.5t23 9.5q20 0 29 -20q11 -23 32.5 -35.5t50.5 -12.5t50.5 12.5t32.5 35.5q9 20 29 20q14 0 23 -9.5t9 -22.5q0 -8 -3 -14q-19 -38 -56.5 -60t-84.5 -22t-84.5 22zM109.5 7.5q-13.5 13.5 -13.5 32.5v597q0 27 19.5 47
t46.5 20h13q32 0 56 -30l369 -533q5 -6 8 -6q2 0 4 3t2 7v512q0 19 13.5 33t32.5 14t33 -14t14 -33v-597q0 -27 -20 -46.5t-47 -19.5h-12q-16 0 -30.5 7.5t-23.5 19.5l-371 536q-5 6 -8 6q-2 0 -4 -3t-2 -7v-513q0 -19 -14 -32.5t-33 -13.5t-32.5 13.5z" />
    <glyph glyph-name="uni004E_uni0304" horiz-adv-x="803" 
d="M255 776q-9 9 -9 22t9 22t22 9h234q13 0 22 -9t9 -22t-9 -22t-22 -9h-234q-13 0 -22 9zM109.5 7.5q-13.5 13.5 -13.5 32.5v597q0 27 19.5 47t46.5 20h13q32 0 56 -30l369 -533q5 -6 8 -6q2 0 4 3t2 7v512q0 19 13.5 33t32.5 14t33 -14t14 -33v-597q0 -27 -20 -46.5
t-47 -19.5h-12q-16 0 -30.5 7.5t-23.5 19.5l-371 536q-5 6 -8 6q-2 0 -4 -3t-2 -7v-513q0 -19 -14 -32.5t-33 -13.5t-32.5 13.5z" />
    <glyph glyph-name="uni004E_uni030D" horiz-adv-x="803" 
d="M366.5 923q9.5 10 27.5 10q17 0 27 -9.5t10 -27.5v-117q0 -17 -9.5 -27t-27.5 -10q-17 0 -27 9.5t-10 27.5v117q0 17 9.5 27zM109.5 7.5q-13.5 13.5 -13.5 32.5v597q0 27 19.5 47t46.5 20h13q32 0 56 -30l369 -533q5 -6 8 -6q2 0 4 3t2 7v512q0 19 13.5 33t32.5 14
t33 -14t14 -33v-597q0 -27 -20 -46.5t-47 -19.5h-12q-16 0 -30.5 7.5t-23.5 19.5l-371 536q-5 6 -8 6q-2 0 -4 -3t-2 -7v-513q0 -19 -14 -32.5t-33 -13.5t-32.5 13.5z" />
    <glyph glyph-name="Nacute" unicode="&#x143;" horiz-adv-x="803" 
d="M382 745.5q-8 7.5 -8 20.5q0 8 7 20l51 89q10 20 34 20q16 0 27 -10.5t11 -27.5q0 -16 -10 -26l-69 -82q-9 -11 -23 -11q-12 0 -20 7.5zM109.5 7.5q-13.5 13.5 -13.5 32.5v597q0 27 19.5 47t46.5 20h13q32 0 56 -30l369 -533q5 -6 8 -6q2 0 4 3t2 7v512q0 19 13.5 33
t32.5 14t33 -14t14 -33v-597q0 -27 -20 -46.5t-47 -19.5h-12q-16 0 -30.5 7.5t-23.5 19.5l-371 536q-5 6 -8 6q-2 0 -4 -3t-2 -7v-513q0 -19 -14 -32.5t-33 -13.5t-32.5 13.5z" />
    <glyph glyph-name="Ncaron" unicode="&#x147;" horiz-adv-x="803" 
d="M342 758l-68 70q-8 10 -8 21t9.5 20.5t21.5 9.5q11 0 19 -7l78 -66q6 -4 8 -4q4 0 8 4l78 66q8 7 19 7q12 0 21.5 -9.5t9.5 -20.5t-8 -21l-68 -70q-19 -20 -41 -20h-38q-22 0 -41 20zM109.5 7.5q-13.5 13.5 -13.5 32.5v597q0 27 19.5 47t46.5 20h13q32 0 56 -30l369 -533
q5 -6 8 -6q2 0 4 3t2 7v512q0 19 13.5 33t32.5 14t33 -14t14 -33v-597q0 -27 -20 -46.5t-47 -19.5h-12q-16 0 -30.5 7.5t-23.5 19.5l-371 536q-5 6 -8 6q-2 0 -4 -3t-2 -7v-513q0 -19 -14 -32.5t-33 -13.5t-32.5 13.5z" />
    <glyph glyph-name="uni0145" unicode="&#x145;" horiz-adv-x="803" 
d="M109.5 7.5q-13.5 13.5 -13.5 32.5v597q0 27 19.5 47t46.5 20h13q32 0 56 -30l369 -533q5 -6 8 -6q2 0 4 3t2 7v512q0 19 13.5 33t32.5 14t33 -14t14 -33v-597q0 -27 -20 -46.5t-47 -19.5h-12q-16 0 -30.5 7.5t-23.5 19.5l-371 536q-5 6 -8 6q-2 0 -4 -3t-2 -7v-513
q0 -19 -14 -32.5t-33 -13.5t-32.5 13.5zM355.5 -257q-6.5 7 -6.5 17q0 13 12 22q23 14 33 26t10 28q-21 0 -35 13.5t-14 35.5q0 21 15 36.5t36 15.5q22 0 36.5 -15.5t14.5 -38.5v-33q0 -68 -68 -109q-10 -5 -17 -5q-10 0 -16.5 7z" />
    <glyph glyph-name="uni1E44" unicode="&#x1e44;" horiz-adv-x="803" 
d="M365.5 761.5q-15.5 15.5 -15.5 36.5t15.5 36.5t36.5 15.5t36.5 -15.5t15.5 -36.5t-15.5 -36.5t-36.5 -15.5t-36.5 15.5zM109.5 7.5q-13.5 13.5 -13.5 32.5v597q0 27 19.5 47t46.5 20h13q32 0 56 -30l369 -533q5 -6 8 -6q2 0 4 3t2 7v512q0 19 13.5 33t32.5 14t33 -14
t14 -33v-597q0 -27 -20 -46.5t-47 -19.5h-12q-16 0 -30.5 7.5t-23.5 19.5l-371 536q-5 6 -8 6q-2 0 -4 -3t-2 -7v-513q0 -19 -14 -32.5t-33 -13.5t-32.5 13.5z" />
    <glyph glyph-name="uni1E46" unicode="&#x1e46;" horiz-adv-x="803" 
d="M109.5 7.5q-13.5 13.5 -13.5 32.5v597q0 27 19.5 47t46.5 20h13q32 0 56 -30l369 -533q5 -6 8 -6q2 0 4 3t2 7v512q0 19 13.5 33t32.5 14t33 -14t14 -33v-597q0 -27 -20 -46.5t-47 -19.5h-12q-16 0 -30.5 7.5t-23.5 19.5l-371 536q-5 6 -8 6q-2 0 -4 -3t-2 -7v-513
q0 -19 -14 -32.5t-33 -13.5t-32.5 13.5zM365.5 -151.5q-15.5 15.5 -15.5 36.5t15.5 36.5t36.5 15.5t36.5 -15.5t15.5 -36.5t-15.5 -36.5t-36.5 -15.5t-36.5 15.5z" />
    <glyph glyph-name="uni01F8" unicode="&#x1f8;" horiz-adv-x="803" 
d="M371 743l-69 82q-10 15 -10 26q0 18 10.5 28t27.5 10q24 0 34 -20l51 -89q7 -12 7 -20q0 -12 -7.5 -20t-20.5 -8q-14 0 -23 11zM109.5 7.5q-13.5 13.5 -13.5 32.5v597q0 27 19.5 47t46.5 20h13q32 0 56 -30l369 -533q5 -6 8 -6q2 0 4 3t2 7v512q0 19 13.5 33t32.5 14
t33 -14t14 -33v-597q0 -27 -20 -46.5t-47 -19.5h-12q-16 0 -30.5 7.5t-23.5 19.5l-371 536q-5 6 -8 6q-2 0 -4 -3t-2 -7v-513q0 -19 -14 -32.5t-33 -13.5t-32.5 13.5z" />
    <glyph glyph-name="Eng" unicode="&#x14a;" horiz-adv-x="803" 
d="M693 690q14 -14 14 -33v-740q0 -77 -33.5 -117.5t-98.5 -40.5q-36 0 -63 9q-13 4 -20 14t-7 23q0 15 11.5 27t27.5 12l12 -2h3q6 -1 15 -1q32 0 46 18t14 60v65l-411 574q-5 6 -8 6q-2 0 -4 -3t-2 -7v-514q0 -19 -14 -32.5t-33 -13.5t-32.5 13.5t-13.5 32.5v597
q0 27 19.5 47t46.5 20h13q32 0 56 -30l383 -533v516q0 19 13.5 33t32.5 14t33 -14z" />
    <glyph glyph-name="uni01CB" unicode="&#x1cb;" horiz-adv-x="1047" 
d="M883.5 628.5q-15.5 15.5 -15.5 36.5v4q0 21 15.5 36.5t36.5 15.5h6q21 0 36.5 -15.5t15.5 -36.5v-4q0 -21 -15.5 -36.5t-36.5 -15.5h-6q-21 0 -36.5 15.5zM109.5 7.5q-13.5 13.5 -13.5 32.5v597q0 27 19.5 47t46.5 20h13q32 0 56 -30l369 -533q5 -6 8 -6q2 0 4 3t2 7v512
q0 19 13.5 33t32.5 14t33 -14t14 -33v-597q0 -27 -20 -46.5t-47 -19.5h-12q-16 0 -30.5 7.5t-23.5 19.5l-371 536q-5 6 -8 6q-2 0 -4 -3t-2 -7v-513q0 -19 -14 -32.5t-33 -13.5t-32.5 13.5zM774 -232q-13 4 -20 14t-7 23q0 15 11.5 27t27.5 12l12 -2h3q6 -1 15 -1
q33 0 46.5 12t13.5 46v569q0 19 13.5 33t32.5 14q20 0 33.5 -13.5t13.5 -33.5v-571q0 -67 -33.5 -102.5t-98.5 -35.5q-36 0 -63 9z" />
    <glyph glyph-name="uni1E48" unicode="&#x1e48;" horiz-adv-x="803" 
d="M109.5 7.5q-13.5 13.5 -13.5 32.5v597q0 27 19.5 47t46.5 20h13q32 0 56 -30l369 -533q5 -6 8 -6q2 0 4 3t2 7v512q0 19 13.5 33t32.5 14t33 -14t14 -33v-597q0 -27 -20 -46.5t-47 -19.5h-12q-16 0 -30.5 7.5t-23.5 19.5l-371 536q-5 6 -8 6q-2 0 -4 -3t-2 -7v-513
q0 -19 -14 -32.5t-33 -13.5t-32.5 13.5zM263 -129q-9 9 -9 22t9 22t22 9h234q13 0 22 -9t9 -22t-9 -22t-22 -9h-234q-13 0 -22 9z" />
    <glyph glyph-name="Ntilde" unicode="&#xd1;" horiz-adv-x="803" 
d="M247.5 749q-7.5 7 -7.5 17q0 35 25 65.5t60 30.5q19 0 36 -5.5t44 -18.5q26 -13 41.5 -18t32.5 -5q13 0 21.5 6t14.5 20q8 22 26 22q10 0 16.5 -6.5t7.5 -16.5q0 -37 -24.5 -66.5t-60.5 -29.5q-19 0 -35 5.5t-47 19.5q-26 13 -41 18t-31 5q-25 0 -38 -31q-6 -19 -24 -19
q-9 0 -16.5 7zM109.5 7.5q-13.5 13.5 -13.5 32.5v597q0 27 19.5 47t46.5 20h13q32 0 56 -30l369 -533q5 -6 8 -6q2 0 4 3t2 7v512q0 19 13.5 33t32.5 14t33 -14t14 -33v-597q0 -27 -20 -46.5t-47 -19.5h-12q-16 0 -30.5 7.5t-23.5 19.5l-371 536q-5 6 -8 6q-2 0 -4 -3t-2 -7
v-513q0 -19 -14 -32.5t-33 -13.5t-32.5 13.5z" />
    <glyph glyph-name="O" unicode="O" horiz-adv-x="812" 
d="M221 35q-78 46 -121.5 127.5t-45.5 186.5q2 105 45 186q43 82 123 128t184 46q105 0 185 -46q78 -46 121.5 -128t45.5 -186q-2 -104 -45 -185q-44 -83 -123.5 -129t-183.5 -46q-105 0 -185 46zM544 112q58 35 89.5 96.5t31.5 140.5q0 78 -31 140q-32 63 -91 98t-137 35
q-81 0 -138 -36q-58 -35 -89.5 -96.5t-31.5 -140.5q0 -78 31 -140q32 -64 90.5 -98.5t137.5 -34.5q81 0 138 36z" />
    <glyph glyph-name="O_gravecomb" horiz-adv-x="812" 
d="M385 761l-69 82q-10 15 -10 26q0 18 10.5 28t27.5 10q24 0 34 -20l51 -89q7 -12 7 -20q0 -12 -7.5 -20t-20.5 -8q-14 0 -23 11zM221 35q-78 46 -121.5 127.5t-45.5 186.5q2 105 45 186q43 82 123 128t184 46q105 0 185 -46q78 -46 121.5 -128t45.5 -186q-2 -104 -45 -185
q-44 -83 -123.5 -129t-183.5 -46q-105 0 -185 46zM544 112q58 35 89.5 96.5t31.5 140.5q0 78 -31 140q-32 63 -91 98t-137 35q-81 0 -138 -36q-58 -35 -89.5 -96.5t-31.5 -140.5q0 -78 31 -140q32 -64 90.5 -98.5t137.5 -34.5q81 0 138 36z" />
    <glyph glyph-name="uni004F_uni0300_uni0358" horiz-adv-x="812" 
d="M385 761l-69 82q-10 15 -10 26q0 18 10.5 28t27.5 10q24 0 34 -20l51 -89q7 -12 7 -20q0 -12 -7.5 -20t-20.5 -8q-14 0 -23 11zM707.5 683.5q-15.5 15.5 -15.5 36.5t15.5 36.5t36.5 15.5t36.5 -15.5t15.5 -36.5t-15.5 -36.5t-36.5 -15.5t-36.5 15.5zM221 35
q-78 46 -121.5 127.5t-45.5 186.5q2 105 45 186q43 82 123 128t184 46q105 0 185 -46q78 -46 121.5 -128t45.5 -186q-2 -104 -45 -185q-44 -83 -123.5 -129t-183.5 -46q-105 0 -185 46zM544 112q58 35 89.5 96.5t31.5 140.5q0 78 -31 140q-32 63 -91 98t-137 35
q-81 0 -138 -36q-58 -35 -89.5 -96.5t-31.5 -140.5q0 -78 31 -140q32 -64 90.5 -98.5t137.5 -34.5q81 0 138 36z" />
    <glyph glyph-name="O_acutecomb" horiz-adv-x="812" 
d="M388 757.5q-8 7.5 -8 20.5q0 8 7 20l51 89q10 20 34 20q16 0 27 -10.5t11 -27.5q0 -16 -10 -26l-69 -82q-9 -11 -23 -11q-12 0 -20 7.5zM221 35q-78 46 -121.5 127.5t-45.5 186.5q2 105 45 186q43 82 123 128t184 46q105 0 185 -46q78 -46 121.5 -128t45.5 -186
q-2 -104 -45 -185q-44 -83 -123.5 -129t-183.5 -46q-105 0 -185 46zM544 112q58 35 89.5 96.5t31.5 140.5q0 78 -31 140q-32 63 -91 98t-137 35q-81 0 -138 -36q-58 -35 -89.5 -96.5t-31.5 -140.5q0 -78 31 -140q32 -64 90.5 -98.5t137.5 -34.5q81 0 138 36z" />
    <glyph glyph-name="uni004F_uni0301_uni0358" horiz-adv-x="812" 
d="M388 757.5q-8 7.5 -8 20.5q0 8 7 20l51 89q10 20 34 20q16 0 27 -10.5t11 -27.5q0 -16 -10 -26l-69 -82q-9 -11 -23 -11q-12 0 -20 7.5zM707.5 683.5q-15.5 15.5 -15.5 36.5t15.5 36.5t36.5 15.5t36.5 -15.5t15.5 -36.5t-15.5 -36.5t-36.5 -15.5t-36.5 15.5zM221 35
q-78 46 -121.5 127.5t-45.5 186.5q2 105 45 186q43 82 123 128t184 46q105 0 185 -46q78 -46 121.5 -128t45.5 -186q-2 -104 -45 -185q-44 -83 -123.5 -129t-183.5 -46q-105 0 -185 46zM544 112q58 35 89.5 96.5t31.5 140.5q0 78 -31 140q-32 63 -91 98t-137 35
q-81 0 -138 -36q-58 -35 -89.5 -96.5t-31.5 -140.5q0 -78 31 -140q32 -64 90.5 -98.5t137.5 -34.5q81 0 138 36z" />
    <glyph glyph-name="uni004F_uni030B" horiz-adv-x="812" 
d="M328 755q-8 7 -8 19q0 6 1 8l27 90q4 15 15 23.5t24 8.5q15 0 25.5 -9.5t10.5 -24.5q0 -11 -7 -25l-41 -79q-10 -18 -27 -18q-12 0 -20 7zM444 755q-8 7 -8 19q0 6 1 8l27 90q4 15 15 23.5t24 8.5q15 0 25.5 -9.5t10.5 -24.5q0 -11 -7 -25l-41 -79q-10 -18 -27 -18
q-12 0 -20 7zM221 35q-78 46 -121.5 127.5t-45.5 186.5q2 105 45 186q43 82 123 128t184 46q105 0 185 -46q78 -46 121.5 -128t45.5 -186q-2 -104 -45 -185q-44 -83 -123.5 -129t-183.5 -46q-105 0 -185 46zM544 112q58 35 89.5 96.5t31.5 140.5q0 78 -31 140q-32 63 -91 98
t-137 35q-81 0 -138 -36q-58 -35 -89.5 -96.5t-31.5 -140.5q0 -78 31 -140q32 -64 90.5 -98.5t137.5 -34.5q81 0 138 36z" />
    <glyph glyph-name="uni004F_uni030B_uni0358" horiz-adv-x="812" 
d="M328 755q-8 7 -8 19q0 6 1 8l27 90q4 15 15 23.5t24 8.5q15 0 25.5 -9.5t10.5 -24.5q0 -11 -7 -25l-41 -79q-10 -18 -27 -18q-12 0 -20 7zM444 755q-8 7 -8 19q0 6 1 8l27 90q4 15 15 23.5t24 8.5q15 0 25.5 -9.5t10.5 -24.5q0 -11 -7 -25l-41 -79q-10 -18 -27 -18
q-12 0 -20 7zM707.5 683.5q-15.5 15.5 -15.5 36.5t15.5 36.5t36.5 15.5t36.5 -15.5t15.5 -36.5t-15.5 -36.5t-36.5 -15.5t-36.5 15.5zM221 35q-78 46 -121.5 127.5t-45.5 186.5q2 105 45 186q43 82 123 128t184 46q105 0 185 -46q78 -46 121.5 -128t45.5 -186
q-2 -104 -45 -185q-44 -83 -123.5 -129t-183.5 -46q-105 0 -185 46zM544 112q58 35 89.5 96.5t31.5 140.5q0 78 -31 140q-32 63 -91 98t-137 35q-81 0 -138 -36q-58 -35 -89.5 -96.5t-31.5 -140.5q0 -78 31 -140q32 -64 90.5 -98.5t137.5 -34.5q81 0 138 36z" />
    <glyph glyph-name="uni004F_uni0302" horiz-adv-x="812" 
d="M280.5 754.5q-9.5 9.5 -9.5 20.5t8 21l68 70q19 20 41 20h38q22 0 41 -20l68 -70q8 -10 8 -21t-9.5 -20.5t-21.5 -9.5q-11 0 -19 7l-78 66q-3 4 -8 4q-4 0 -8 -4l-78 -66q-8 -7 -19 -7q-12 0 -21.5 9.5zM221 35q-78 46 -121.5 127.5t-45.5 186.5q2 105 45 186
q43 82 123 128t184 46q105 0 185 -46q78 -46 121.5 -128t45.5 -186q-2 -104 -45 -185q-44 -83 -123.5 -129t-183.5 -46q-105 0 -185 46zM544 112q58 35 89.5 96.5t31.5 140.5q0 78 -31 140q-32 63 -91 98t-137 35q-81 0 -138 -36q-58 -35 -89.5 -96.5t-31.5 -140.5
q0 -78 31 -140q32 -64 90.5 -98.5t137.5 -34.5q81 0 138 36z" />
    <glyph glyph-name="uni004F_uni0302_uni0358" horiz-adv-x="812" 
d="M280.5 754.5q-9.5 9.5 -9.5 20.5t8 21l68 70q19 20 41 20h38q22 0 41 -20l68 -70q8 -10 8 -21t-9.5 -20.5t-21.5 -9.5q-11 0 -19 7l-78 66q-3 4 -8 4q-4 0 -8 -4l-78 -66q-8 -7 -19 -7q-12 0 -21.5 9.5zM707.5 683.5q-15.5 15.5 -15.5 36.5t15.5 36.5t36.5 15.5
t36.5 -15.5t15.5 -36.5t-15.5 -36.5t-36.5 -15.5t-36.5 15.5zM221 35q-78 46 -121.5 127.5t-45.5 186.5q2 105 45 186q43 82 123 128t184 46q105 0 185 -46q78 -46 121.5 -128t45.5 -186q-2 -104 -45 -185q-44 -83 -123.5 -129t-183.5 -46q-105 0 -185 46zM544 112
q58 35 89.5 96.5t31.5 140.5q0 78 -31 140q-32 63 -91 98t-137 35q-81 0 -138 -36q-58 -35 -89.5 -96.5t-31.5 -140.5q0 -78 31 -140q32 -64 90.5 -98.5t137.5 -34.5q81 0 138 36z" />
    <glyph glyph-name="uni004F_uni030C" horiz-adv-x="812" 
d="M346 769l-68 70q-8 10 -8 21t9.5 20.5t21.5 9.5q11 0 19 -7l78 -66q6 -4 8 -4q4 0 8 4l78 66q8 7 19 7q12 0 21.5 -9.5t9.5 -20.5t-8 -21l-68 -70q-19 -20 -41 -20h-38q-22 0 -41 20zM221 35q-78 46 -121.5 127.5t-45.5 186.5q2 105 45 186q43 82 123 128t184 46
q105 0 185 -46q78 -46 121.5 -128t45.5 -186q-2 -104 -45 -185q-44 -83 -123.5 -129t-183.5 -46q-105 0 -185 46zM544 112q58 35 89.5 96.5t31.5 140.5q0 78 -31 140q-32 63 -91 98t-137 35q-81 0 -138 -36q-58 -35 -89.5 -96.5t-31.5 -140.5q0 -78 31 -140
q32 -64 90.5 -98.5t137.5 -34.5q81 0 138 36z" />
    <glyph glyph-name="uni004F_uni030C_uni0358" horiz-adv-x="812" 
d="M346 769l-68 70q-8 10 -8 21t9.5 20.5t21.5 9.5q11 0 19 -7l78 -66q6 -4 8 -4q4 0 8 4l78 66q8 7 19 7q12 0 21.5 -9.5t9.5 -20.5t-8 -21l-68 -70q-19 -20 -41 -20h-38q-22 0 -41 20zM707.5 683.5q-15.5 15.5 -15.5 36.5t15.5 36.5t36.5 15.5t36.5 -15.5t15.5 -36.5
t-15.5 -36.5t-36.5 -15.5t-36.5 15.5zM221 35q-78 46 -121.5 127.5t-45.5 186.5q2 105 45 186q43 82 123 128t184 46q105 0 185 -46q78 -46 121.5 -128t45.5 -186q-2 -104 -45 -185q-44 -83 -123.5 -129t-183.5 -46q-105 0 -185 46zM544 112q58 35 89.5 96.5t31.5 140.5
q0 78 -31 140q-32 63 -91 98t-137 35q-81 0 -138 -36q-58 -35 -89.5 -96.5t-31.5 -140.5q0 -78 31 -140q32 -64 90.5 -98.5t137.5 -34.5q81 0 138 36z" />
    <glyph glyph-name="uni004F_uni0306" horiz-adv-x="812" 
d="M323.5 773q-37.5 22 -56.5 60q-3 6 -3 14q0 13 9 22.5t23 9.5q20 0 29 -20q11 -23 32.5 -35.5t50.5 -12.5t50.5 12.5t32.5 35.5q9 20 29 20q14 0 23 -9.5t9 -22.5q0 -8 -3 -14q-19 -38 -56.5 -60t-84.5 -22t-84.5 22zM221 35q-78 46 -121.5 127.5t-45.5 186.5
q2 105 45 186q43 82 123 128t184 46q105 0 185 -46q78 -46 121.5 -128t45.5 -186q-2 -104 -45 -185q-44 -83 -123.5 -129t-183.5 -46q-105 0 -185 46zM544 112q58 35 89.5 96.5t31.5 140.5q0 78 -31 140q-32 63 -91 98t-137 35q-81 0 -138 -36q-58 -35 -89.5 -96.5
t-31.5 -140.5q0 -78 31 -140q32 -64 90.5 -98.5t137.5 -34.5q81 0 138 36z" />
    <glyph glyph-name="uni004F_uni0306_uni0358" horiz-adv-x="812" 
d="M323.5 773q-37.5 22 -56.5 60q-3 6 -3 14q0 13 9 22.5t23 9.5q20 0 29 -20q11 -23 32.5 -35.5t50.5 -12.5t50.5 12.5t32.5 35.5q9 20 29 20q14 0 23 -9.5t9 -22.5q0 -8 -3 -14q-19 -38 -56.5 -60t-84.5 -22t-84.5 22zM707.5 683.5q-15.5 15.5 -15.5 36.5t15.5 36.5
t36.5 15.5t36.5 -15.5t15.5 -36.5t-15.5 -36.5t-36.5 -15.5t-36.5 15.5zM221 35q-78 46 -121.5 127.5t-45.5 186.5q2 105 45 186q43 82 123 128t184 46q105 0 185 -46q78 -46 121.5 -128t45.5 -186q-2 -104 -45 -185q-44 -83 -123.5 -129t-183.5 -46q-105 0 -185 46z
M544 112q58 35 89.5 96.5t31.5 140.5q0 78 -31 140q-32 63 -91 98t-137 35q-81 0 -138 -36q-58 -35 -89.5 -96.5t-31.5 -140.5q0 -78 31 -140q32 -64 90.5 -98.5t137.5 -34.5q81 0 138 36z" />
    <glyph glyph-name="O_tildecomb" horiz-adv-x="812" 
d="M261.5 761q-7.5 7 -7.5 17q0 35 25 65.5t60 30.5q19 0 36 -5.5t44 -18.5q26 -13 41.5 -18t32.5 -5q13 0 21.5 6t14.5 20q8 22 26 22q10 0 16.5 -6.5t7.5 -16.5q0 -37 -25 -66.5t-60 -29.5q-18 0 -34.5 5.5t-47.5 19.5q-26 13 -41 18t-31 5q-25 0 -38 -31q-6 -19 -24 -19
q-9 0 -16.5 7zM221 35q-78 46 -121.5 127.5t-45.5 186.5q2 105 45 186q43 82 123 128t184 46q105 0 185 -46q78 -46 121.5 -128t45.5 -186q-2 -104 -45 -185q-44 -83 -123.5 -129t-183.5 -46q-105 0 -185 46zM544 112q58 35 89.5 96.5t31.5 140.5q0 78 -31 140
q-32 63 -91 98t-137 35q-81 0 -138 -36q-58 -35 -89.5 -96.5t-31.5 -140.5q0 -78 31 -140q32 -64 90.5 -98.5t137.5 -34.5q81 0 138 36z" />
    <glyph glyph-name="uni004F_uni0304" horiz-adv-x="812" 
d="M269 794q-9 9 -9 22t9 22t22 9h234q13 0 22 -9t9 -22t-9 -22t-22 -9h-234q-13 0 -22 9zM221 35q-78 46 -121.5 127.5t-45.5 186.5q2 105 45 186q43 82 123 128t184 46q105 0 185 -46q78 -46 121.5 -128t45.5 -186q-2 -104 -45 -185q-44 -83 -123.5 -129t-183.5 -46
q-105 0 -185 46zM544 112q58 35 89.5 96.5t31.5 140.5q0 78 -31 140q-32 63 -91 98t-137 35q-81 0 -138 -36q-58 -35 -89.5 -96.5t-31.5 -140.5q0 -78 31 -140q32 -64 90.5 -98.5t137.5 -34.5q81 0 138 36z" />
    <glyph glyph-name="uni004F_uni0304_uni0358" horiz-adv-x="812" 
d="M269 794q-9 9 -9 22t9 22t22 9h234q13 0 22 -9t9 -22t-9 -22t-22 -9h-234q-13 0 -22 9zM707.5 683.5q-15.5 15.5 -15.5 36.5t15.5 36.5t36.5 15.5t36.5 -15.5t15.5 -36.5t-15.5 -36.5t-36.5 -15.5t-36.5 15.5zM221 35q-78 46 -121.5 127.5t-45.5 186.5q2 105 45 186
q43 82 123 128t184 46q105 0 185 -46q78 -46 121.5 -128t45.5 -186q-2 -104 -45 -185q-44 -83 -123.5 -129t-183.5 -46q-105 0 -185 46zM544 112q58 35 89.5 96.5t31.5 140.5q0 78 -31 140q-32 63 -91 98t-137 35q-81 0 -138 -36q-58 -35 -89.5 -96.5t-31.5 -140.5
q0 -78 31 -140q32 -64 90.5 -98.5t137.5 -34.5q81 0 138 36z" />
    <glyph glyph-name="uni004F_uni030D" horiz-adv-x="812" 
d="M380.5 941q9.5 10 27.5 10q17 0 27 -9.5t10 -27.5v-117q0 -17 -9.5 -27t-27.5 -10q-17 0 -27 9.5t-10 27.5v117q0 17 9.5 27zM221 35q-78 46 -121.5 127.5t-45.5 186.5q2 105 45 186q43 82 123 128t184 46q105 0 185 -46q78 -46 121.5 -128t45.5 -186q-2 -104 -45 -185
q-44 -83 -123.5 -129t-183.5 -46q-105 0 -185 46zM544 112q58 35 89.5 96.5t31.5 140.5q0 78 -31 140q-32 63 -91 98t-137 35q-81 0 -138 -36q-58 -35 -89.5 -96.5t-31.5 -140.5q0 -78 31 -140q32 -64 90.5 -98.5t137.5 -34.5q81 0 138 36z" />
    <glyph glyph-name="uni004F_uni030D_uni0358" horiz-adv-x="812" 
d="M380.5 941q9.5 10 27.5 10q17 0 27 -9.5t10 -27.5v-117q0 -17 -9.5 -27t-27.5 -10q-17 0 -27 9.5t-10 27.5v117q0 17 9.5 27zM707.5 683.5q-15.5 15.5 -15.5 36.5t15.5 36.5t36.5 15.5t36.5 -15.5t15.5 -36.5t-15.5 -36.5t-36.5 -15.5t-36.5 15.5zM221 35
q-78 46 -121.5 127.5t-45.5 186.5q2 105 45 186q43 82 123 128t184 46q105 0 185 -46q78 -46 121.5 -128t45.5 -186q-2 -104 -45 -185q-44 -83 -123.5 -129t-183.5 -46q-105 0 -185 46zM544 112q58 35 89.5 96.5t31.5 140.5q0 78 -31 140q-32 63 -91 98t-137 35
q-81 0 -138 -36q-58 -35 -89.5 -96.5t-31.5 -140.5q0 -78 31 -140q32 -64 90.5 -98.5t137.5 -34.5q81 0 138 36z" />
    <glyph glyph-name="uni004F_uni0358" horiz-adv-x="812" 
d="M707.5 683.5q-15.5 15.5 -15.5 36.5t15.5 36.5t36.5 15.5t36.5 -15.5t15.5 -36.5t-15.5 -36.5t-36.5 -15.5t-36.5 15.5zM221 35q-78 46 -121.5 127.5t-45.5 186.5q2 105 45 186q43 82 123 128t184 46q105 0 185 -46q78 -46 121.5 -128t45.5 -186q-2 -104 -45 -185
q-44 -83 -123.5 -129t-183.5 -46q-105 0 -185 46zM544 112q58 35 89.5 96.5t31.5 140.5q0 78 -31 140q-32 63 -91 98t-137 35q-81 0 -138 -36q-58 -35 -89.5 -96.5t-31.5 -140.5q0 -78 31 -140q32 -64 90.5 -98.5t137.5 -34.5q81 0 138 36z" />
    <glyph glyph-name="uni004F_uni0358_uni0301" horiz-adv-x="812" 
d="M388 757.5q-8 7.5 -8 20.5q0 8 7 20l51 89q10 20 34 20q16 0 27 -10.5t11 -27.5q0 -16 -10 -26l-69 -82q-9 -11 -23 -11q-12 0 -20 7.5zM707.5 683.5q-15.5 15.5 -15.5 36.5t15.5 36.5t36.5 15.5t36.5 -15.5t15.5 -36.5t-15.5 -36.5t-36.5 -15.5t-36.5 15.5zM221 35
q-78 46 -121.5 127.5t-45.5 186.5q2 105 45 186q43 82 123 128t184 46q105 0 185 -46q78 -46 121.5 -128t45.5 -186q-2 -104 -45 -185q-44 -83 -123.5 -129t-183.5 -46q-105 0 -185 46zM544 112q58 35 89.5 96.5t31.5 140.5q0 78 -31 140q-32 63 -91 98t-137 35
q-81 0 -138 -36q-58 -35 -89.5 -96.5t-31.5 -140.5q0 -78 31 -140q32 -64 90.5 -98.5t137.5 -34.5q81 0 138 36z" />
    <glyph glyph-name="uni004F_uni0358_uni030B" horiz-adv-x="812" 
d="M328 755q-8 7 -8 19q0 6 1 8l27 90q4 15 15 23.5t24 8.5q15 0 25.5 -9.5t10.5 -24.5q0 -11 -7 -25l-41 -79q-10 -18 -27 -18q-12 0 -20 7zM444 755q-8 7 -8 19q0 6 1 8l27 90q4 15 15 23.5t24 8.5q15 0 25.5 -9.5t10.5 -24.5q0 -11 -7 -25l-41 -79q-10 -18 -27 -18
q-12 0 -20 7zM707.5 683.5q-15.5 15.5 -15.5 36.5t15.5 36.5t36.5 15.5t36.5 -15.5t15.5 -36.5t-15.5 -36.5t-36.5 -15.5t-36.5 15.5zM221 35q-78 46 -121.5 127.5t-45.5 186.5q2 105 45 186q43 82 123 128t184 46q105 0 185 -46q78 -46 121.5 -128t45.5 -186
q-2 -104 -45 -185q-44 -83 -123.5 -129t-183.5 -46q-105 0 -185 46zM544 112q58 35 89.5 96.5t31.5 140.5q0 78 -31 140q-32 63 -91 98t-137 35q-81 0 -138 -36q-58 -35 -89.5 -96.5t-31.5 -140.5q0 -78 31 -140q32 -64 90.5 -98.5t137.5 -34.5q81 0 138 36z" />
    <glyph glyph-name="uni004F_uni0358_uni0302" horiz-adv-x="812" 
d="M280.5 754.5q-9.5 9.5 -9.5 20.5t8 21l68 70q19 20 41 20h38q22 0 41 -20l68 -70q8 -10 8 -21t-9.5 -20.5t-21.5 -9.5q-11 0 -19 7l-78 66q-3 4 -8 4q-4 0 -8 -4l-78 -66q-8 -7 -19 -7q-12 0 -21.5 9.5zM707.5 683.5q-15.5 15.5 -15.5 36.5t15.5 36.5t36.5 15.5
t36.5 -15.5t15.5 -36.5t-15.5 -36.5t-36.5 -15.5t-36.5 15.5zM221 35q-78 46 -121.5 127.5t-45.5 186.5q2 105 45 186q43 82 123 128t184 46q105 0 185 -46q78 -46 121.5 -128t45.5 -186q-2 -104 -45 -185q-44 -83 -123.5 -129t-183.5 -46q-105 0 -185 46zM544 112
q58 35 89.5 96.5t31.5 140.5q0 78 -31 140q-32 63 -91 98t-137 35q-81 0 -138 -36q-58 -35 -89.5 -96.5t-31.5 -140.5q0 -78 31 -140q32 -64 90.5 -98.5t137.5 -34.5q81 0 138 36z" />
    <glyph glyph-name="uni004F_uni0358_uni030C" horiz-adv-x="812" 
d="M346 769l-68 70q-8 10 -8 21t9.5 20.5t21.5 9.5q11 0 19 -7l78 -66q6 -4 8 -4q4 0 8 4l78 66q8 7 19 7q12 0 21.5 -9.5t9.5 -20.5t-8 -21l-68 -70q-19 -20 -41 -20h-38q-22 0 -41 20zM707.5 683.5q-15.5 15.5 -15.5 36.5t15.5 36.5t36.5 15.5t36.5 -15.5t15.5 -36.5
t-15.5 -36.5t-36.5 -15.5t-36.5 15.5zM221 35q-78 46 -121.5 127.5t-45.5 186.5q2 105 45 186q43 82 123 128t184 46q105 0 185 -46q78 -46 121.5 -128t45.5 -186q-2 -104 -45 -185q-44 -83 -123.5 -129t-183.5 -46q-105 0 -185 46zM544 112q58 35 89.5 96.5t31.5 140.5
q0 78 -31 140q-32 63 -91 98t-137 35q-81 0 -138 -36q-58 -35 -89.5 -96.5t-31.5 -140.5q0 -78 31 -140q32 -64 90.5 -98.5t137.5 -34.5q81 0 138 36z" />
    <glyph glyph-name="uni004F_uni0358_uni0306" horiz-adv-x="812" 
d="M323.5 773q-37.5 22 -56.5 60q-3 6 -3 14q0 13 9 22.5t23 9.5q20 0 29 -20q11 -23 32.5 -35.5t50.5 -12.5t50.5 12.5t32.5 35.5q9 20 29 20q14 0 23 -9.5t9 -22.5q0 -8 -3 -14q-19 -38 -56.5 -60t-84.5 -22t-84.5 22zM707.5 683.5q-15.5 15.5 -15.5 36.5t15.5 36.5
t36.5 15.5t36.5 -15.5t15.5 -36.5t-15.5 -36.5t-36.5 -15.5t-36.5 15.5zM221 35q-78 46 -121.5 127.5t-45.5 186.5q2 105 45 186q43 82 123 128t184 46q105 0 185 -46q78 -46 121.5 -128t45.5 -186q-2 -104 -45 -185q-44 -83 -123.5 -129t-183.5 -46q-105 0 -185 46z
M544 112q58 35 89.5 96.5t31.5 140.5q0 78 -31 140q-32 63 -91 98t-137 35q-81 0 -138 -36q-58 -35 -89.5 -96.5t-31.5 -140.5q0 -78 31 -140q32 -64 90.5 -98.5t137.5 -34.5q81 0 138 36z" />
    <glyph glyph-name="uni004F_uni0358_uni0304" horiz-adv-x="812" 
d="M269 794q-9 9 -9 22t9 22t22 9h234q13 0 22 -9t9 -22t-9 -22t-22 -9h-234q-13 0 -22 9zM707.5 683.5q-15.5 15.5 -15.5 36.5t15.5 36.5t36.5 15.5t36.5 -15.5t15.5 -36.5t-15.5 -36.5t-36.5 -15.5t-36.5 15.5zM221 35q-78 46 -121.5 127.5t-45.5 186.5q2 105 45 186
q43 82 123 128t184 46q105 0 185 -46q78 -46 121.5 -128t45.5 -186q-2 -104 -45 -185q-44 -83 -123.5 -129t-183.5 -46q-105 0 -185 46zM544 112q58 35 89.5 96.5t31.5 140.5q0 78 -31 140q-32 63 -91 98t-137 35q-81 0 -138 -36q-58 -35 -89.5 -96.5t-31.5 -140.5
q0 -78 31 -140q32 -64 90.5 -98.5t137.5 -34.5q81 0 138 36z" />
    <glyph glyph-name="uni004F_uni0358_uni030D" horiz-adv-x="812" 
d="M380.5 941q9.5 10 27.5 10q17 0 27 -9.5t10 -27.5v-117q0 -17 -9.5 -27t-27.5 -10q-17 0 -27 9.5t-10 27.5v117q0 17 9.5 27zM707.5 683.5q-15.5 15.5 -15.5 36.5t15.5 36.5t36.5 15.5t36.5 -15.5t15.5 -36.5t-15.5 -36.5t-36.5 -15.5t-36.5 15.5zM221 35
q-78 46 -121.5 127.5t-45.5 186.5q2 105 45 186q43 82 123 128t184 46q105 0 185 -46q78 -46 121.5 -128t45.5 -186q-2 -104 -45 -185q-44 -83 -123.5 -129t-183.5 -46q-105 0 -185 46zM544 112q58 35 89.5 96.5t31.5 140.5q0 78 -31 140q-32 63 -91 98t-137 35
q-81 0 -138 -36q-58 -35 -89.5 -96.5t-31.5 -140.5q0 -78 31 -140q32 -64 90.5 -98.5t137.5 -34.5q81 0 138 36z" />
    <glyph glyph-name="Oacute" unicode="&#xd3;" horiz-adv-x="812" 
d="M386 745.5q-8 7.5 -8 20.5q0 8 7 20l51 89q10 20 34 20q16 0 27 -10.5t11 -27.5q0 -16 -10 -26l-69 -82q-9 -11 -23 -11q-12 0 -20 7.5zM221 35q-78 46 -121.5 127.5t-45.5 186.5q2 105 45 186q43 82 123 128t184 46q105 0 185 -46q78 -46 121.5 -128t45.5 -186
q-2 -104 -45 -185q-44 -83 -123.5 -129t-183.5 -46q-105 0 -185 46zM544 112q58 35 89.5 96.5t31.5 140.5q0 78 -31 140q-32 63 -91 98t-137 35q-81 0 -138 -36q-58 -35 -89.5 -96.5t-31.5 -140.5q0 -78 31 -140q32 -64 90.5 -98.5t137.5 -34.5q81 0 138 36z" />
    <glyph glyph-name="Obreve" unicode="&#x14e;" horiz-adv-x="812" 
d="M321.5 769q-37.5 22 -56.5 60q-3 6 -3 14q0 13 9 22.5t23 9.5q20 0 29 -20q11 -23 32.5 -35.5t50.5 -12.5t50.5 12.5t32.5 35.5q9 20 29 20q14 0 23 -9.5t9 -22.5q0 -8 -3 -14q-19 -38 -56.5 -60t-84.5 -22t-84.5 22zM221 35q-78 46 -121.5 127.5t-45.5 186.5
q2 105 45 186q43 82 123 128t184 46q105 0 185 -46q78 -46 121.5 -128t45.5 -186q-2 -104 -45 -185q-44 -83 -123.5 -129t-183.5 -46q-105 0 -185 46zM544 112q58 35 89.5 96.5t31.5 140.5q0 78 -31 140q-32 63 -91 98t-137 35q-81 0 -138 -36q-58 -35 -89.5 -96.5
t-31.5 -140.5q0 -78 31 -140q32 -64 90.5 -98.5t137.5 -34.5q81 0 138 36z" />
    <glyph glyph-name="uni01D1" unicode="&#x1d1;" horiz-adv-x="812" 
d="M348 780l-68 70q-8 10 -8 21t9.5 20.5t21.5 9.5q11 0 19 -7l78 -66q6 -4 8 -4q4 0 8 4l78 66q8 7 19 7q12 0 21.5 -9.5t9.5 -20.5t-8 -21l-68 -70q-19 -20 -41 -20h-38q-22 0 -41 20zM221 35q-78 46 -121.5 127.5t-45.5 186.5q2 105 45 186q43 82 123 128t184 46
q105 0 185 -46q78 -46 121.5 -128t45.5 -186q-2 -104 -45 -185q-44 -83 -123.5 -129t-183.5 -46q-105 0 -185 46zM544 112q58 35 89.5 96.5t31.5 140.5q0 78 -31 140q-32 63 -91 98t-137 35q-81 0 -138 -36q-58 -35 -89.5 -96.5t-31.5 -140.5q0 -78 31 -140
q32 -64 90.5 -98.5t137.5 -34.5q81 0 138 36z" />
    <glyph glyph-name="Ocircumflex" unicode="&#xd4;" horiz-adv-x="812" 
d="M279.5 746.5q-9.5 9.5 -9.5 20.5t8 21l68 70q19 20 41 20h38q22 0 41 -20l68 -70q8 -10 8 -21t-9.5 -20.5t-21.5 -9.5q-11 0 -19 7l-78 66q-3 4 -8 4q-4 0 -8 -4l-78 -66q-8 -7 -19 -7q-12 0 -21.5 9.5zM221 35q-78 46 -121.5 127.5t-45.5 186.5q2 105 45 186
q43 82 123 128t184 46q105 0 185 -46q78 -46 121.5 -128t45.5 -186q-2 -104 -45 -185q-44 -83 -123.5 -129t-183.5 -46q-105 0 -185 46zM544 112q58 35 89.5 96.5t31.5 140.5q0 78 -31 140q-32 63 -91 98t-137 35q-81 0 -138 -36q-58 -35 -89.5 -96.5t-31.5 -140.5
q0 -78 31 -140q32 -64 90.5 -98.5t137.5 -34.5q81 0 138 36z" />
    <glyph glyph-name="uni1ED0" unicode="&#x1ed0;" horiz-adv-x="812" 
d="M494.5 841q-6.5 6 -6.5 15q0 8 5 20l36 61q14 25 33 25q15 0 25 -9t10 -24q0 -14 -13 -29l-51 -55q-12 -10 -23 -10q-9 0 -15.5 6zM280 745.5q-10 8.5 -10 18.5q0 12 8 20l68 58q13 10 21 14t20 4h38q12 0 20 -4t21 -14l68 -58q8 -8 8 -20q0 -10 -10 -18.5t-21 -8.5
q-10 0 -19 6l-78 62q-3 4 -8 4q-4 0 -8 -4l-78 -62q-9 -6 -19 -6q-11 0 -21 8.5zM221 35q-78 46 -121.5 127.5t-45.5 186.5q2 105 45 186q43 82 123 128t184 46q105 0 185 -46q78 -46 121.5 -128t45.5 -186q-2 -104 -45 -185q-44 -83 -123.5 -129t-183.5 -46q-105 0 -185 46
zM544 112q58 35 89.5 96.5t31.5 140.5q0 78 -31 140q-32 63 -91 98t-137 35q-81 0 -138 -36q-58 -35 -89.5 -96.5t-31.5 -140.5q0 -78 31 -140q32 -64 90.5 -98.5t137.5 -34.5q81 0 138 36z" />
    <glyph glyph-name="uni1ED8" unicode="&#x1ed8;" horiz-adv-x="812" 
d="M279.5 746.5q-9.5 9.5 -9.5 20.5t8 21l68 70q19 20 41 20h38q22 0 41 -20l68 -70q8 -10 8 -21t-9.5 -20.5t-21.5 -9.5q-11 0 -19 7l-78 66q-3 4 -8 4q-4 0 -8 -4l-78 -66q-8 -7 -19 -7q-12 0 -21.5 9.5zM221 35q-78 46 -121.5 127.5t-45.5 186.5q2 105 45 186
q43 82 123 128t184 46q105 0 185 -46q78 -46 121.5 -128t45.5 -186q-2 -104 -45 -185q-44 -83 -123.5 -129t-183.5 -46q-105 0 -185 46zM544 112q58 35 89.5 96.5t31.5 140.5q0 78 -31 140q-32 63 -91 98t-137 35q-81 0 -138 -36q-58 -35 -89.5 -96.5t-31.5 -140.5
q0 -78 31 -140q32 -64 90.5 -98.5t137.5 -34.5q81 0 138 36zM369.5 -151.5q-15.5 15.5 -15.5 36.5t15.5 36.5t36.5 15.5t36.5 -15.5t15.5 -36.5t-15.5 -36.5t-36.5 -15.5t-36.5 15.5z" />
    <glyph glyph-name="uni1ED2" unicode="&#x1ed2;" horiz-adv-x="812" 
d="M492 845l-51 55q-13 15 -13 29q0 15 10 24t25 9q19 0 33 -25l36 -61q5 -12 5 -20q0 -9 -6.5 -15t-15.5 -6q-11 0 -23 10zM280 745.5q-10 8.5 -10 18.5q0 12 8 20l68 58q13 10 21 14t20 4h38q12 0 20 -4t21 -14l68 -58q8 -8 8 -20q0 -10 -10 -18.5t-21 -8.5q-10 0 -19 6
l-78 62q-3 4 -8 4q-4 0 -8 -4l-78 -62q-9 -6 -19 -6q-11 0 -21 8.5zM221 35q-78 46 -121.5 127.5t-45.5 186.5q2 105 45 186q43 82 123 128t184 46q105 0 185 -46q78 -46 121.5 -128t45.5 -186q-2 -104 -45 -185q-44 -83 -123.5 -129t-183.5 -46q-105 0 -185 46zM544 112
q58 35 89.5 96.5t31.5 140.5q0 78 -31 140q-32 63 -91 98t-137 35q-81 0 -138 -36q-58 -35 -89.5 -96.5t-31.5 -140.5q0 -78 31 -140q32 -64 90.5 -98.5t137.5 -34.5q81 0 138 36z" />
    <glyph glyph-name="uni1ED4" unicode="&#x1ed4;" horiz-adv-x="812" 
d="M493 844.5q-7 6.5 -7 17.5q0 14 9.5 25t31.5 24q6 4 9 7q6 4 11 8t5 9q0 17 -30 17q-20 0 -35 -7t-22 -7q-9 0 -15.5 6t-6.5 15q0 13 11 21q28 17 69 17q81 0 81 -61q0 -19 -9 -31t-30 -25q-11 -7 -18.5 -13.5t-10.5 -13.5q-7 -15 -26 -15q-10 0 -17 6.5zM280 745.5
q-10 8.5 -10 18.5q0 12 8 20l68 58q13 10 21 14t20 4h38q12 0 20 -4t21 -14l68 -58q8 -8 8 -20q0 -10 -10 -18.5t-21 -8.5q-10 0 -19 6l-78 62q-3 4 -8 4q-4 0 -8 -4l-78 -62q-9 -6 -19 -6q-11 0 -21 8.5zM221 35q-78 46 -121.5 127.5t-45.5 186.5q2 105 45 186
q43 82 123 128t184 46q105 0 185 -46q78 -46 121.5 -128t45.5 -186q-2 -104 -45 -185q-44 -83 -123.5 -129t-183.5 -46q-105 0 -185 46zM544 112q58 35 89.5 96.5t31.5 140.5q0 78 -31 140q-32 63 -91 98t-137 35q-81 0 -138 -36q-58 -35 -89.5 -96.5t-31.5 -140.5
q0 -78 31 -140q32 -64 90.5 -98.5t137.5 -34.5q81 0 138 36z" />
    <glyph glyph-name="uni1ED6" unicode="&#x1ed6;" horiz-adv-x="812" 
d="M272 881q-6 5 -6 12q0 29 22 51t56 22q14 0 27.5 -3t36.5 -11l4 -1q30 -12 56 -12q15 0 24 4.5t16 14.5q3 6 7 8.5t12 2.5q19 0 20 -17q0 -28 -23.5 -50.5t-55.5 -22.5q-15 0 -28.5 3t-36.5 12q-38 14 -58 14q-32 0 -40 -19q-1 -6 -7 -9.5t-12 -3.5q-8 0 -14 5z
M280 745.5q-10 8.5 -10 18.5q0 12 8 20l68 58q13 10 21 14t20 4h38q12 0 20 -4t21 -14l68 -58q8 -8 8 -20q0 -10 -10 -18.5t-21 -8.5q-10 0 -19 6l-78 62q-3 4 -8 4q-4 0 -8 -4l-78 -62q-9 -6 -19 -6q-11 0 -21 8.5zM221 35q-78 46 -121.5 127.5t-45.5 186.5q2 105 45 186
q43 82 123 128t184 46q105 0 185 -46q78 -46 121.5 -128t45.5 -186q-2 -104 -45 -185q-44 -83 -123.5 -129t-183.5 -46q-105 0 -185 46zM544 112q58 35 89.5 96.5t31.5 140.5q0 78 -31 140q-32 63 -91 98t-137 35q-81 0 -138 -36q-58 -35 -89.5 -96.5t-31.5 -140.5
q0 -78 31 -140q32 -64 90.5 -98.5t137.5 -34.5q81 0 138 36z" />
    <glyph glyph-name="uni020C" unicode="&#x20c;" horiz-adv-x="812" 
d="M309 745.5q-8 7.5 -8 20.5q0 8 7 20l51 89q10 20 34 20q16 0 27 -10.5t11 -27.5q0 -16 -10 -26l-69 -82q-9 -11 -23 -11q-12 0 -20 7.5zM463 745.5q-8 7.5 -8 20.5q0 8 7 20l51 89q10 20 34 20q16 0 27 -10.5t11 -27.5q0 -16 -10 -26l-69 -82q-9 -11 -23 -11
q-12 0 -20 7.5zM221 35q-78 46 -121.5 127.5t-45.5 186.5q2 105 45 186q43 82 123 128t184 46q105 0 185 -46q78 -46 121.5 -128t45.5 -186q-2 -104 -45 -185q-44 -83 -123.5 -129t-183.5 -46q-105 0 -185 46zM544 112q58 35 89.5 96.5t31.5 140.5q0 78 -31 140
q-32 63 -91 98t-137 35q-81 0 -138 -36q-58 -35 -89.5 -96.5t-31.5 -140.5q0 -78 31 -140q32 -64 90.5 -98.5t137.5 -34.5q81 0 138 36z" />
    <glyph glyph-name="Odieresis" unicode="&#xd6;" horiz-adv-x="812" 
d="M285.5 761.5q-15.5 15.5 -15.5 36.5t15.5 36.5t36.5 15.5t36.5 -15.5t15.5 -36.5t-15.5 -36.5t-36.5 -15.5t-36.5 15.5zM453.5 761.5q-15.5 15.5 -15.5 36.5t15.5 36.5t36.5 15.5t36.5 -15.5t15.5 -36.5t-15.5 -36.5t-36.5 -15.5t-36.5 15.5zM221 35q-78 46 -121.5 127.5
t-45.5 186.5q2 105 45 186q43 82 123 128t184 46q105 0 185 -46q78 -46 121.5 -128t45.5 -186q-2 -104 -45 -185q-44 -83 -123.5 -129t-183.5 -46q-105 0 -185 46zM544 112q58 35 89.5 96.5t31.5 140.5q0 78 -31 140q-32 63 -91 98t-137 35q-81 0 -138 -36
q-58 -35 -89.5 -96.5t-31.5 -140.5q0 -78 31 -140q32 -64 90.5 -98.5t137.5 -34.5q81 0 138 36z" />
    <glyph glyph-name="uni022A" unicode="&#x22a;" horiz-adv-x="812" 
d="M267 899q-9 9 -9 22t9 22t22 9h234q13 0 22 -9t9 -22t-9 -22t-22 -9h-234q-13 0 -22 9zM285.5 761.5q-15.5 15.5 -15.5 36.5t15.5 36.5t36.5 15.5t36.5 -15.5t15.5 -36.5t-15.5 -36.5t-36.5 -15.5t-36.5 15.5zM453.5 761.5q-15.5 15.5 -15.5 36.5t15.5 36.5t36.5 15.5
t36.5 -15.5t15.5 -36.5t-15.5 -36.5t-36.5 -15.5t-36.5 15.5zM221 35q-78 46 -121.5 127.5t-45.5 186.5q2 105 45 186q43 82 123 128t184 46q105 0 185 -46q78 -46 121.5 -128t45.5 -186q-2 -104 -45 -185q-44 -83 -123.5 -129t-183.5 -46q-105 0 -185 46zM544 112
q58 35 89.5 96.5t31.5 140.5q0 78 -31 140q-32 63 -91 98t-137 35q-81 0 -138 -36q-58 -35 -89.5 -96.5t-31.5 -140.5q0 -78 31 -140q32 -64 90.5 -98.5t137.5 -34.5q81 0 138 36z" />
    <glyph glyph-name="uni022E" unicode="&#x22e;" horiz-adv-x="812" 
d="M373.5 774.5q-14.5 14.5 -14.5 34.5t14.5 35t34.5 15q21 0 35.5 -15t14.5 -35t-14.5 -34.5t-35.5 -14.5q-20 0 -34.5 14.5zM221 35q-78 46 -121.5 127.5t-45.5 186.5q2 105 45 186q43 82 123 128t184 46q105 0 185 -46q78 -46 121.5 -128t45.5 -186q-2 -104 -45 -185
q-44 -83 -123.5 -129t-183.5 -46q-105 0 -185 46zM544 112q58 35 89.5 96.5t31.5 140.5q0 78 -31 140q-32 63 -91 98t-137 35q-81 0 -138 -36q-58 -35 -89.5 -96.5t-31.5 -140.5q0 -78 31 -140q32 -64 90.5 -98.5t137.5 -34.5q81 0 138 36z" />
    <glyph glyph-name="uni0230" unicode="&#x230;" horiz-adv-x="812" 
d="M267 899q-9 9 -9 22t9 22t22 9h234q13 0 22 -9t9 -22t-9 -22t-22 -9h-234q-13 0 -22 9zM369.5 761.5q-15.5 15.5 -15.5 36.5t15.5 36.5t36.5 15.5t36.5 -15.5t15.5 -36.5t-15.5 -36.5t-36.5 -15.5t-36.5 15.5zM221 35q-78 46 -121.5 127.5t-45.5 186.5q2 105 45 186
q43 82 123 128t184 46q105 0 185 -46q78 -46 121.5 -128t45.5 -186q-2 -104 -45 -185q-44 -83 -123.5 -129t-183.5 -46q-105 0 -185 46zM544 112q58 35 89.5 96.5t31.5 140.5q0 78 -31 140q-32 63 -91 98t-137 35q-81 0 -138 -36q-58 -35 -89.5 -96.5t-31.5 -140.5
q0 -78 31 -140q32 -64 90.5 -98.5t137.5 -34.5q81 0 138 36z" />
    <glyph glyph-name="uni1ECC" unicode="&#x1ecc;" horiz-adv-x="812" 
d="M221 35q-78 46 -121.5 127.5t-45.5 186.5q2 105 45 186q43 82 123 128t184 46q105 0 185 -46q78 -46 121.5 -128t45.5 -186q-2 -104 -45 -185q-44 -83 -123.5 -129t-183.5 -46q-105 0 -185 46zM544 112q58 35 89.5 96.5t31.5 140.5q0 78 -31 140q-32 63 -91 98t-137 35
q-81 0 -138 -36q-58 -35 -89.5 -96.5t-31.5 -140.5q0 -78 31 -140q32 -64 90.5 -98.5t137.5 -34.5q81 0 138 36zM369.5 -151.5q-15.5 15.5 -15.5 36.5t15.5 36.5t36.5 15.5t36.5 -15.5t15.5 -36.5t-15.5 -36.5t-36.5 -15.5t-36.5 15.5z" />
    <glyph glyph-name="Ograve" unicode="&#xd2;" horiz-adv-x="812" 
d="M383 749l-69 82q-10 10 -10 26q0 18 10.5 28t27.5 10q24 0 34 -20l51 -89q7 -12 7 -20q0 -12 -7.5 -20t-20.5 -8q-14 0 -23 11zM221 35q-78 46 -121.5 127.5t-45.5 186.5q2 105 45 186q43 82 123 128t184 46q105 0 185 -46q78 -46 121.5 -128t45.5 -186q-2 -104 -45 -185
q-44 -83 -123.5 -129t-183.5 -46q-105 0 -185 46zM544 112q58 35 89.5 96.5t31.5 140.5q0 78 -31 140q-32 63 -91 98t-137 35q-81 0 -138 -36q-58 -35 -89.5 -96.5t-31.5 -140.5q0 -78 31 -140q32 -64 90.5 -98.5t137.5 -34.5q81 0 138 36z" />
    <glyph glyph-name="uni1ECE" unicode="&#x1ece;" horiz-adv-x="812" 
d="M382 743q-7 6 -7 16q0 17 9 28.5t30 24.5q17 11 24 18.5t7 17.5q0 11 -9 17t-25 6q-25 0 -44 -9t-23 -9q-9 0 -15.5 6.5t-6.5 15.5q0 12 11 20q32 20 78 20q38 0 60.5 -17.5t22.5 -48.5q0 -21 -9 -34.5t-31 -29.5q-25 -17 -31 -32q-6 -16 -24 -16q-10 0 -17 6zM221 35
q-78 46 -121.5 127.5t-45.5 186.5q2 105 45 186q43 82 123 128t184 46q105 0 185 -46q78 -46 121.5 -128t45.5 -186q-2 -104 -45 -185q-44 -83 -123.5 -129t-183.5 -46q-105 0 -185 46zM544 112q58 35 89.5 96.5t31.5 140.5q0 78 -31 140q-32 63 -91 98t-137 35
q-81 0 -138 -36q-58 -35 -89.5 -96.5t-31.5 -140.5q0 -78 31 -140q32 -64 90.5 -98.5t137.5 -34.5q81 0 138 36z" />
    <glyph glyph-name="Ohorn" unicode="&#x1a0;" horiz-adv-x="811" 
d="M221 35q-78 46 -121.5 127.5t-45.5 186.5q2 102 46 187q44 83 124.5 128t189.5 45q18 0 39.5 -2t27.5 -2q3 -1 7 -1q43 -7 99 -7q48 0 70.5 18t22.5 54q0 15 -4 30q-3 12 -3 21q0 14 10 24t24 10q24 0 37.5 -26.5t13.5 -74.5q0 -51 -31 -82.5t-91 -40.5
q58 -49 89.5 -121.5t32.5 -159.5q-2 -104 -45 -185q-44 -83 -123.5 -129t-183.5 -46q-105 0 -185 46zM544 112q58 35 89.5 96.5t31.5 140.5q0 78 -31 140q-32 63 -91 98t-137 35q-81 0 -138 -36q-58 -35 -89.5 -96.5t-31.5 -140.5q0 -78 31 -140q32 -64 90.5 -98.5
t137.5 -34.5q81 0 138 36z" />
    <glyph glyph-name="uni1EDA" unicode="&#x1eda;" horiz-adv-x="811" 
d="M386 745.5q-8 7.5 -8 20.5q0 8 7 20l51 89q10 20 34 20q16 0 27 -10.5t11 -27.5q0 -16 -10 -26l-69 -82q-9 -11 -23 -11q-12 0 -20 7.5zM221 35q-78 46 -121.5 127.5t-45.5 186.5q2 102 46 187q44 83 124.5 128t189.5 45q18 0 39.5 -2t27.5 -2q3 -1 7 -1q43 -7 99 -7
q48 0 70.5 18t22.5 54q0 15 -4 30q-3 12 -3 21q0 14 10 24t24 10q24 0 37.5 -26.5t13.5 -74.5q0 -51 -31 -82.5t-91 -40.5q58 -49 89.5 -121.5t32.5 -159.5q-2 -104 -45 -185q-44 -83 -123.5 -129t-183.5 -46q-105 0 -185 46zM544 112q58 35 89.5 96.5t31.5 140.5
q0 78 -31 140q-32 63 -91 98t-137 35q-81 0 -138 -36q-58 -35 -89.5 -96.5t-31.5 -140.5q0 -78 31 -140q32 -64 90.5 -98.5t137.5 -34.5q81 0 138 36z" />
    <glyph glyph-name="uni1EE2" unicode="&#x1ee2;" horiz-adv-x="811" 
d="M221 35q-78 46 -121.5 127.5t-45.5 186.5q2 102 46 187q44 83 124.5 128t189.5 45q18 0 39.5 -2t27.5 -2q3 -1 7 -1q43 -7 99 -7q48 0 70.5 18t22.5 54q0 15 -4 30q-3 12 -3 21q0 14 10 24t24 10q24 0 37.5 -26.5t13.5 -74.5q0 -51 -31 -82.5t-91 -40.5
q58 -49 89.5 -121.5t32.5 -159.5q-2 -104 -45 -185q-44 -83 -123.5 -129t-183.5 -46q-105 0 -185 46zM544 112q58 35 89.5 96.5t31.5 140.5q0 78 -31 140q-32 63 -91 98t-137 35q-81 0 -138 -36q-58 -35 -89.5 -96.5t-31.5 -140.5q0 -78 31 -140q32 -64 90.5 -98.5
t137.5 -34.5q81 0 138 36zM369.5 -151.5q-15.5 15.5 -15.5 36.5t15.5 36.5t36.5 15.5t36.5 -15.5t15.5 -36.5t-15.5 -36.5t-36.5 -15.5t-36.5 15.5z" />
    <glyph glyph-name="uni1EDC" unicode="&#x1edc;" horiz-adv-x="811" 
d="M383 749l-69 82q-10 10 -10 26q0 18 10.5 28t27.5 10q24 0 34 -20l51 -89q7 -12 7 -20q0 -12 -7.5 -20t-20.5 -8q-14 0 -23 11zM221 35q-78 46 -121.5 127.5t-45.5 186.5q2 102 46 187q44 83 124.5 128t189.5 45q18 0 39.5 -2t27.5 -2q3 -1 7 -1q43 -7 99 -7
q48 0 70.5 18t22.5 54q0 15 -4 30q-3 12 -3 21q0 14 10 24t24 10q24 0 37.5 -26.5t13.5 -74.5q0 -51 -31 -82.5t-91 -40.5q58 -49 89.5 -121.5t32.5 -159.5q-2 -104 -45 -185q-44 -83 -123.5 -129t-183.5 -46q-105 0 -185 46zM544 112q58 35 89.5 96.5t31.5 140.5
q0 78 -31 140q-32 63 -91 98t-137 35q-81 0 -138 -36q-58 -35 -89.5 -96.5t-31.5 -140.5q0 -78 31 -140q32 -64 90.5 -98.5t137.5 -34.5q81 0 138 36z" />
    <glyph glyph-name="uni1EDE" unicode="&#x1ede;" horiz-adv-x="811" 
d="M382 743q-7 6 -7 16q0 17 9 28.5t30 24.5q17 11 24 18.5t7 17.5q0 11 -9 17t-25 6q-25 0 -44 -9t-23 -9q-9 0 -15.5 6.5t-6.5 15.5q0 12 11 20q32 20 78 20q38 0 60.5 -17.5t22.5 -48.5q0 -21 -9 -34.5t-31 -29.5q-25 -17 -31 -32q-6 -16 -24 -16q-10 0 -17 6zM221 35
q-78 46 -121.5 127.5t-45.5 186.5q2 102 46 187q44 83 124.5 128t189.5 45q18 0 39.5 -2t27.5 -2q3 -1 7 -1q43 -7 99 -7q48 0 70.5 18t22.5 54q0 15 -4 30q-3 12 -3 21q0 14 10 24t24 10q24 0 37.5 -26.5t13.5 -74.5q0 -51 -31 -82.5t-91 -40.5q58 -49 89.5 -121.5
t32.5 -159.5q-2 -104 -45 -185q-44 -83 -123.5 -129t-183.5 -46q-105 0 -185 46zM544 112q58 35 89.5 96.5t31.5 140.5q0 78 -31 140q-32 63 -91 98t-137 35q-81 0 -138 -36q-58 -35 -89.5 -96.5t-31.5 -140.5q0 -78 31 -140q32 -64 90.5 -98.5t137.5 -34.5q81 0 138 36z
" />
    <glyph glyph-name="uni1EE0" unicode="&#x1ee0;" horiz-adv-x="811" 
d="M251.5 749q-7.5 7 -7.5 17q0 35 25 65.5t60 30.5q19 0 36 -5.5t44 -18.5q26 -13 41.5 -18t32.5 -5q13 0 21.5 6t14.5 20q8 22 26 22q10 0 16.5 -6.5t7.5 -16.5q0 -37 -24.5 -66.5t-60.5 -29.5q-19 0 -35 5.5t-47 19.5q-26 13 -41 18t-31 5q-25 0 -38 -31q-6 -19 -24 -19
q-9 0 -16.5 7zM221 35q-78 46 -121.5 127.5t-45.5 186.5q2 102 46 187q44 83 124.5 128t189.5 45q18 0 39.5 -2t27.5 -2q3 -1 7 -1q43 -7 99 -7q48 0 70.5 18t22.5 54q0 15 -4 30q-3 12 -3 21q0 14 10 24t24 10q24 0 37.5 -26.5t13.5 -74.5q0 -51 -31 -82.5t-91 -40.5
q58 -49 89.5 -121.5t32.5 -159.5q-2 -104 -45 -185q-44 -83 -123.5 -129t-183.5 -46q-105 0 -185 46zM544 112q58 35 89.5 96.5t31.5 140.5q0 78 -31 140q-32 63 -91 98t-137 35q-81 0 -138 -36q-58 -35 -89.5 -96.5t-31.5 -140.5q0 -78 31 -140q32 -64 90.5 -98.5
t137.5 -34.5q81 0 138 36z" />
    <glyph glyph-name="Ohungarumlaut" unicode="&#x150;" horiz-adv-x="812" 
d="M327 745q-8 7 -8 19q0 6 1 8l27 90q4 15 15 23.5t24 8.5q15 0 25.5 -9.5t10.5 -24.5q0 -11 -7 -25l-41 -79q-10 -18 -27 -18q-12 0 -20 7zM443 745q-8 7 -8 19q0 6 1 8l27 90q4 15 15 23.5t24 8.5q15 0 25.5 -9.5t10.5 -24.5q0 -11 -7 -25l-41 -79q-10 -18 -27 -18
q-12 0 -20 7zM221 35q-78 46 -121.5 127.5t-45.5 186.5q2 105 45 186q43 82 123 128t184 46q105 0 185 -46q78 -46 121.5 -128t45.5 -186q-2 -104 -45 -185q-44 -83 -123.5 -129t-183.5 -46q-105 0 -185 46zM544 112q58 35 89.5 96.5t31.5 140.5q0 78 -31 140q-32 63 -91 98
t-137 35q-81 0 -138 -36q-58 -35 -89.5 -96.5t-31.5 -140.5q0 -78 31 -140q32 -64 90.5 -98.5t137.5 -34.5q81 0 138 36z" />
    <glyph glyph-name="uni020E" unicode="&#x20e;" horiz-adv-x="812" 
d="M271 747.5q-9 9.5 -9 22.5q0 8 3 14q19 38 56.5 60t84.5 22t84.5 -22t56.5 -60q3 -6 3 -14q0 -13 -9 -22.5t-23 -9.5q-20 0 -29 20q-11 23 -32.5 35.5t-50.5 12.5t-50.5 -12.5t-32.5 -35.5q-9 -20 -29 -20q-14 0 -23 9.5zM221 35q-78 46 -121.5 127.5t-45.5 186.5
q2 105 45 186q43 82 123 128t184 46q105 0 185 -46q78 -46 121.5 -128t45.5 -186q-2 -104 -45 -185q-44 -83 -123.5 -129t-183.5 -46q-105 0 -185 46zM544 112q58 35 89.5 96.5t31.5 140.5q0 78 -31 140q-32 63 -91 98t-137 35q-81 0 -138 -36q-58 -35 -89.5 -96.5
t-31.5 -140.5q0 -78 31 -140q32 -64 90.5 -98.5t137.5 -34.5q81 0 138 36z" />
    <glyph glyph-name="Omacron" unicode="&#x14c;" horiz-adv-x="812" 
d="M267 768q-9 9 -9 22t9 22t22 9h234q13 0 22 -9t9 -22t-9 -22t-22 -9h-234q-13 0 -22 9zM221 35q-78 46 -121.5 127.5t-45.5 186.5q2 105 45 186q43 82 123 128t184 46q105 0 185 -46q78 -46 121.5 -128t45.5 -186q-2 -104 -45 -185q-44 -83 -123.5 -129t-183.5 -46
q-105 0 -185 46zM544 112q58 35 89.5 96.5t31.5 140.5q0 78 -31 140q-32 63 -91 98t-137 35q-81 0 -138 -36q-58 -35 -89.5 -96.5t-31.5 -140.5q0 -78 31 -140q32 -64 90.5 -98.5t137.5 -34.5q81 0 138 36z" />
    <glyph glyph-name="uni1E52" unicode="&#x1e52;" horiz-adv-x="812" 
d="M386 866.5q-8 7.5 -8 20.5q0 8 7 20l51 89q10 20 34 20q16 0 27 -10.5t11 -27.5q0 -16 -10 -26l-69 -82q-9 -11 -23 -11q-12 0 -20 7.5zM267 768q-9 9 -9 22t9 22t22 9h234q13 0 22 -9t9 -22t-9 -22t-22 -9h-234q-13 0 -22 9zM221 35q-78 46 -121.5 127.5t-45.5 186.5
q2 105 45 186q43 82 123 128t184 46q105 0 185 -46q78 -46 121.5 -128t45.5 -186q-2 -104 -45 -185q-44 -83 -123.5 -129t-183.5 -46q-105 0 -185 46zM544 112q58 35 89.5 96.5t31.5 140.5q0 78 -31 140q-32 63 -91 98t-137 35q-81 0 -138 -36q-58 -35 -89.5 -96.5
t-31.5 -140.5q0 -78 31 -140q32 -64 90.5 -98.5t137.5 -34.5q81 0 138 36z" />
    <glyph glyph-name="uni1E50" unicode="&#x1e50;" horiz-adv-x="812" 
d="M383 870l-69 82q-10 10 -10 26q0 18 10.5 28t27.5 10q24 0 34 -20l51 -89q7 -12 7 -20q0 -12 -7.5 -20t-20.5 -8q-14 0 -23 11zM267 768q-9 9 -9 22t9 22t22 9h234q13 0 22 -9t9 -22t-9 -22t-22 -9h-234q-13 0 -22 9zM221 35q-78 46 -121.5 127.5t-45.5 186.5
q2 105 45 186q43 82 123 128t184 46q105 0 185 -46q78 -46 121.5 -128t45.5 -186q-2 -104 -45 -185q-44 -83 -123.5 -129t-183.5 -46q-105 0 -185 46zM544 112q58 35 89.5 96.5t31.5 140.5q0 78 -31 140q-32 63 -91 98t-137 35q-81 0 -138 -36q-58 -35 -89.5 -96.5
t-31.5 -140.5q0 -78 31 -140q32 -64 90.5 -98.5t137.5 -34.5q81 0 138 36z" />
    <glyph glyph-name="uni01EA" unicode="&#x1ea;" horiz-adv-x="811" 
d="M452.5 -40q-32.5 -29 -32.5 -60q0 -46 50 -46q15 0 35 6l3 1l6 1q10 0 16.5 -6.5t6.5 -16.5q0 -11 -11 -19q-36 -24 -87 -24q-39 0 -66.5 24t-27.5 61q0 62 66 108h-5q-105 0 -185 46q-78 46 -121.5 127.5t-45.5 186.5q2 105 45 186q43 82 123 128t184 46q105 0 185 -46
q78 -46 121.5 -128t45.5 -186q-2 -123 -60 -211t-166 -130q-47 -19 -79.5 -48zM544 112q58 35 89.5 96.5t31.5 140.5q0 78 -31 140q-32 63 -91 98t-137 35q-81 0 -138 -36q-58 -35 -89.5 -96.5t-31.5 -140.5q0 -78 31 -140q32 -64 90.5 -98.5t137.5 -34.5q81 0 138 36z" />
    <glyph glyph-name="Oslash" unicode="&#xd8;" horiz-adv-x="812" 
d="M139.5 -23.5q-7.5 7.5 -7.5 17.5q0 8 6 18l39 54q-59 48 -90.5 121.5t-32.5 161.5q2 105 45 186q43 82 123 128t184 46q105 0 188 -49l39 58q9 10 22 10q11 0 18.5 -7.5t7.5 -17.5q0 -7 -6 -18l-39 -55q57 -48 88.5 -120.5t33.5 -160.5q-2 -104 -45 -185
q-44 -83 -123.5 -129t-183.5 -46q-106 0 -187 47l-39 -57q-9 -10 -22 -10q-11 0 -18.5 7.5zM406 622q-81 0 -138 -36q-58 -35 -89.5 -96.5t-31.5 -140.5q0 -65 21 -118.5t61 -89.5l313 447q-62 34 -136 34zM544 112q58 35 89.5 96.5t31.5 140.5q0 63 -21.5 117.5t-59.5 89.5
l-314 -447q57 -33 136 -33q81 0 138 36z" />
    <glyph glyph-name="Oslashacute" unicode="&#x1fe;" horiz-adv-x="812" 
d="M386 745.5q-8 7.5 -8 20.5q0 8 7 20l51 89q10 20 34 20q16 0 27 -10.5t11 -27.5q0 -16 -10 -26l-69 -82q-9 -11 -23 -11q-12 0 -20 7.5zM139.5 -23.5q-7.5 7.5 -7.5 17.5q0 8 6 18l39 54q-59 48 -90.5 121.5t-32.5 161.5q2 105 45 186q43 82 123 128t184 46
q105 0 188 -49l39 58q9 10 22 10q11 0 18.5 -7.5t7.5 -17.5q0 -7 -6 -18l-39 -55q57 -48 88.5 -120.5t33.5 -160.5q-2 -104 -45 -185q-44 -83 -123.5 -129t-183.5 -46q-106 0 -187 47l-39 -57q-9 -10 -22 -10q-11 0 -18.5 7.5zM406 622q-81 0 -138 -36q-58 -35 -89.5 -96.5
t-31.5 -140.5q0 -65 21 -118.5t61 -89.5l313 447q-62 34 -136 34zM544 112q58 35 89.5 96.5t31.5 140.5q0 63 -21.5 117.5t-59.5 89.5l-314 -447q57 -33 136 -33q81 0 138 36z" />
    <glyph glyph-name="Otilde" unicode="&#xd5;" horiz-adv-x="812" 
d="M251.5 749q-7.5 7 -7.5 17q0 35 25 65.5t60 30.5q19 0 36 -5.5t44 -18.5q26 -13 41.5 -18t32.5 -5q13 0 21.5 6t14.5 20q8 22 26 22q10 0 16.5 -6.5t7.5 -16.5q0 -37 -24.5 -66.5t-60.5 -29.5q-19 0 -35 5.5t-47 19.5q-26 13 -41 18t-31 5q-25 0 -38 -31q-6 -19 -24 -19
q-9 0 -16.5 7zM221 35q-78 46 -121.5 127.5t-45.5 186.5q2 105 45 186q43 82 123 128t184 46q105 0 185 -46q78 -46 121.5 -128t45.5 -186q-2 -104 -45 -185q-44 -83 -123.5 -129t-183.5 -46q-105 0 -185 46zM544 112q58 35 89.5 96.5t31.5 140.5q0 78 -31 140
q-32 63 -91 98t-137 35q-81 0 -138 -36q-58 -35 -89.5 -96.5t-31.5 -140.5q0 -78 31 -140q32 -64 90.5 -98.5t137.5 -34.5q81 0 138 36z" />
    <glyph glyph-name="uni1E4C" unicode="&#x1e4c;" horiz-adv-x="812" 
d="M386 876.5q-8 7.5 -8 20.5q0 8 7 20l51 89q10 20 34 20q16 0 27 -10.5t11 -27.5q0 -16 -10 -26l-69 -82q-9 -11 -23 -11q-12 0 -20 7.5zM251.5 749q-7.5 7 -7.5 17q0 35 25 65.5t60 30.5q19 0 36 -5.5t44 -18.5q26 -13 41.5 -18t32.5 -5q13 0 21.5 6t14.5 20q8 22 26 22
q10 0 16.5 -6.5t7.5 -16.5q0 -37 -24.5 -66.5t-60.5 -29.5q-19 0 -35 5.5t-47 19.5q-26 13 -41 18t-31 5q-25 0 -38 -31q-6 -19 -24 -19q-9 0 -16.5 7zM221 35q-78 46 -121.5 127.5t-45.5 186.5q2 105 45 186q43 82 123 128t184 46q105 0 185 -46q78 -46 121.5 -128
t45.5 -186q-2 -104 -45 -185q-44 -83 -123.5 -129t-183.5 -46q-105 0 -185 46zM544 112q58 35 89.5 96.5t31.5 140.5q0 78 -31 140q-32 63 -91 98t-137 35q-81 0 -138 -36q-58 -35 -89.5 -96.5t-31.5 -140.5q0 -78 31 -140q32 -64 90.5 -98.5t137.5 -34.5q81 0 138 36z" />
    <glyph glyph-name="uni1E4E" unicode="&#x1e4e;" horiz-adv-x="812" 
d="M285.5 892.5q-15.5 15.5 -15.5 36.5t15.5 36.5t36.5 15.5t36.5 -15.5t15.5 -36.5t-15.5 -36.5t-36.5 -15.5t-36.5 15.5zM453.5 892.5q-15.5 15.5 -15.5 36.5t15.5 36.5t36.5 15.5t36.5 -15.5t15.5 -36.5t-15.5 -36.5t-36.5 -15.5t-36.5 15.5zM251.5 749q-7.5 7 -7.5 17
q0 35 25 65.5t60 30.5q19 0 36 -5.5t44 -18.5q26 -13 41.5 -18t32.5 -5q13 0 21.5 6t14.5 20q8 22 26 22q10 0 16.5 -6.5t7.5 -16.5q0 -37 -24.5 -66.5t-60.5 -29.5q-19 0 -35 5.5t-47 19.5q-26 13 -41 18t-31 5q-25 0 -38 -31q-6 -19 -24 -19q-9 0 -16.5 7zM221 35
q-78 46 -121.5 127.5t-45.5 186.5q2 105 45 186q43 82 123 128t184 46q105 0 185 -46q78 -46 121.5 -128t45.5 -186q-2 -104 -45 -185q-44 -83 -123.5 -129t-183.5 -46q-105 0 -185 46zM544 112q58 35 89.5 96.5t31.5 140.5q0 78 -31 140q-32 63 -91 98t-137 35
q-81 0 -138 -36q-58 -35 -89.5 -96.5t-31.5 -140.5q0 -78 31 -140q32 -64 90.5 -98.5t137.5 -34.5q81 0 138 36z" />
    <glyph glyph-name="uni022C" unicode="&#x22c;" horiz-adv-x="812" 
d="M267 899q-9 9 -9 22t9 22t22 9h234q13 0 22 -9t9 -22t-9 -22t-22 -9h-234q-13 0 -22 9zM251.5 749q-7.5 7 -7.5 17q0 35 25 65.5t60 30.5q19 0 36 -5.5t44 -18.5q26 -13 41.5 -18t32.5 -5q13 0 21.5 6t14.5 20q8 22 26 22q10 0 16.5 -6.5t7.5 -16.5q0 -37 -24.5 -66.5
t-60.5 -29.5q-19 0 -35 5.5t-47 19.5q-26 13 -41 18t-31 5q-25 0 -38 -31q-6 -19 -24 -19q-9 0 -16.5 7zM221 35q-78 46 -121.5 127.5t-45.5 186.5q2 105 45 186q43 82 123 128t184 46q105 0 185 -46q78 -46 121.5 -128t45.5 -186q-2 -104 -45 -185q-44 -83 -123.5 -129
t-183.5 -46q-105 0 -185 46zM544 112q58 35 89.5 96.5t31.5 140.5q0 78 -31 140q-32 63 -91 98t-137 35q-81 0 -138 -36q-58 -35 -89.5 -96.5t-31.5 -140.5q0 -78 31 -140q32 -64 90.5 -98.5t137.5 -34.5q81 0 138 36z" />
    <glyph glyph-name="OE" unicode="&#x152;" horiz-adv-x="1207" 
d="M1143 73q13 -13 13 -31t-13 -30.5t-31 -12.5h-401q-19 0 -32.5 13.5t-13.5 32.5v70q-43 -61 -109.5 -93.5t-149.5 -32.5q-105 0 -185 46q-78 46 -121.5 127.5t-45.5 186.5q2 105 45 186q43 82 123 128t184 46q83 0 149.5 -32.5t109.5 -93.5v69q0 19 13.5 33t32.5 14h401
q18 0 31 -13t13 -31t-13 -30.5t-31 -12.5h-342q-12 0 -12 -12v-207h318q18 0 31 -13t13 -31t-13 -30.5t-31 -12.5h-318v-208q0 -12 12 -12h342q18 0 31 -13zM633.5 208.5q31.5 61.5 31.5 140.5q0 78 -31 140q-32 63 -91 98t-137 35q-81 0 -138 -36q-58 -35 -89.5 -96.5
t-31.5 -140.5q0 -78 31 -140q32 -64 90.5 -98.5t137.5 -34.5q81 0 138 36q58 35 89.5 96.5z" />
    <glyph glyph-name="P" unicode="P" horiz-adv-x="672" 
d="M109.5 7.5q-13.5 13.5 -13.5 32.5v612q0 19 13.5 33t32.5 14h228q94 0 155 -32q56 -30 84.5 -78.5t28.5 -112.5q0 -59 -26 -108q-27 -53 -88.5 -84t-153.5 -31h-181v-213q0 -19 -14 -32.5t-33 -13.5t-32.5 13.5zM498.5 375.5q46.5 34.5 46.5 100.5t-46.5 100.5
t-137.5 34.5h-160q-12 0 -12 -12v-258h172q91 0 137.5 34.5z" />
    <glyph glyph-name="Thorn" unicode="&#xde;" horiz-adv-x="672" 
d="M109.5 7.5q-13.5 13.5 -13.5 32.5v617q0 19 13.5 33t32.5 14t33 -14t14 -33v-70h181q94 0 155 -32q56 -30 84.5 -78.5t28.5 -112.5q0 -59 -26 -108q-27 -53 -88.5 -84t-153.5 -31h-181v-101q0 -19 -14 -32.5t-33 -13.5t-32.5 13.5zM498.5 263.5q46.5 34.5 46.5 100.5
t-46.5 100.5t-137.5 34.5h-172v-270h172q91 0 137.5 34.5z" />
    <glyph glyph-name="Q" unicode="Q" horiz-adv-x="812" 
d="M574 -137l-108 130q-23 -4 -60 -4q-105 0 -185 46q-78 46 -121.5 127.5t-45.5 186.5q2 105 45 186q43 82 123 128t184 46q105 0 185 -46q78 -46 121.5 -128t45.5 -186q-2 -117 -56.5 -204.5t-149.5 -127.5l87 -96q12 -14 12 -32q0 -17 -13.5 -29.5t-30.5 -12.5
q-19 0 -33 16zM544 112q58 35 89.5 96.5t31.5 140.5q0 78 -31 140q-32 63 -91 98t-137 35q-81 0 -138 -36q-58 -35 -89.5 -96.5t-31.5 -140.5q0 -78 31 -140q32 -64 90.5 -98.5t137.5 -34.5q81 0 138 36z" />
    <glyph glyph-name="R" unicode="R" horiz-adv-x="712" 
d="M613 230.5q29 -64.5 29 -144.5v-46q0 -19 -13.5 -32.5t-32.5 -13.5q-21 0 -34 12.5t-13 33.5v30q0 50 -9 93q-10 47 -45.5 77.5t-99.5 30.5h-206v-231q0 -19 -14 -32.5t-33 -13.5t-32.5 13.5t-13.5 32.5v612q0 19 13.5 33t32.5 14h233q132 0 202.5 -55.5t70.5 -148.5
q0 -61 -33.5 -110t-95.5 -71q65 -19 94 -83.5zM505.5 393.5q49.5 34.5 49.5 94.5q0 62 -44.5 92.5t-146.5 30.5h-163q-12 0 -12 -12v-240h180q87 0 136.5 34.5z" />
    <glyph glyph-name="Racute" unicode="&#x154;" horiz-adv-x="712" 
d="M336 745.5q-8 7.5 -8 20.5q0 8 7 20l51 89q10 20 34 20q16 0 27 -10.5t11 -27.5q0 -16 -10 -26l-69 -82q-9 -11 -23 -11q-12 0 -20 7.5zM613 230.5q29 -64.5 29 -144.5v-46q0 -19 -13.5 -32.5t-32.5 -13.5q-21 0 -34 12.5t-13 33.5v30q0 50 -9 93q-10 47 -45.5 77.5
t-99.5 30.5h-206v-231q0 -19 -14 -32.5t-33 -13.5t-32.5 13.5t-13.5 32.5v612q0 19 13.5 33t32.5 14h233q132 0 202.5 -55.5t70.5 -148.5q0 -61 -33.5 -110t-95.5 -71q65 -19 94 -83.5zM505.5 393.5q49.5 34.5 49.5 94.5q0 62 -44.5 92.5t-146.5 30.5h-163q-12 0 -12 -12
v-240h180q87 0 136.5 34.5z" />
    <glyph glyph-name="Rcaron" unicode="&#x158;" horiz-adv-x="712" 
d="M220 849q0 11 9.5 20.5t21.5 9.5q11 0 19 -7l78 -66q6 -4 8 -4q4 0 8 4l78 66q8 7 19 7q12 0 21.5 -9.5t9.5 -20.5t-8 -21l-68 -70q-19 -20 -41 -20h-38q-22 0 -41 20l-68 70q-8 10 -8 21zM613 230.5q29 -64.5 29 -144.5v-46q0 -19 -13.5 -32.5t-32.5 -13.5
q-21 0 -34 12.5t-13 33.5v30q0 50 -9 93q-10 47 -45.5 77.5t-99.5 30.5h-206v-231q0 -19 -14 -32.5t-33 -13.5t-32.5 13.5t-13.5 32.5v612q0 19 13.5 33t32.5 14h233q132 0 202.5 -55.5t70.5 -148.5q0 -61 -33.5 -110t-95.5 -71q65 -19 94 -83.5zM505.5 393.5
q49.5 34.5 49.5 94.5q0 62 -44.5 92.5t-146.5 30.5h-163q-12 0 -12 -12v-240h180q87 0 136.5 34.5z" />
    <glyph glyph-name="uni0156" unicode="&#x156;" horiz-adv-x="712" 
d="M613 230.5q29 -64.5 29 -144.5v-46q0 -19 -13.5 -32.5t-32.5 -13.5q-21 0 -34 12.5t-13 33.5v30q0 50 -9 93q-10 47 -45.5 77.5t-99.5 30.5h-206v-231q0 -19 -14 -32.5t-33 -13.5t-32.5 13.5t-13.5 32.5v612q0 19 13.5 33t32.5 14h233q132 0 202.5 -55.5t70.5 -148.5
q0 -61 -33.5 -110t-95.5 -71q65 -19 94 -83.5zM505.5 393.5q49.5 34.5 49.5 94.5q0 62 -44.5 92.5t-146.5 30.5h-163q-12 0 -12 -12v-240h180q87 0 136.5 34.5zM396.5 -78.5q14.5 -15.5 14.5 -38.5v-33q0 -68 -68 -109q-10 -5 -17 -5q-10 0 -16.5 7t-6.5 17q0 13 12 22
q23 14 33 26t10 28q-21 0 -35 13.5t-14 35.5q0 21 15 36.5t36 15.5q22 0 36.5 -15.5z" />
    <glyph glyph-name="uni0210" unicode="&#x210;" horiz-adv-x="712" 
d="M259 745.5q-8 7.5 -8 20.5q0 8 7 20l51 89q10 20 34 20q16 0 27 -10.5t11 -27.5q0 -16 -10 -26l-69 -82q-9 -11 -23 -11q-12 0 -20 7.5zM413 745.5q-8 7.5 -8 20.5q0 8 7 20l51 89q10 20 34 20q16 0 27 -10.5t11 -27.5q0 -16 -10 -26l-69 -82q-9 -11 -23 -11
q-12 0 -20 7.5zM613 230.5q29 -64.5 29 -144.5v-46q0 -19 -13.5 -32.5t-32.5 -13.5q-21 0 -34 12.5t-13 33.5v30q0 50 -9 93q-10 47 -45.5 77.5t-99.5 30.5h-206v-231q0 -19 -14 -32.5t-33 -13.5t-32.5 13.5t-13.5 32.5v612q0 19 13.5 33t32.5 14h233q132 0 202.5 -55.5
t70.5 -148.5q0 -61 -33.5 -110t-95.5 -71q65 -19 94 -83.5zM505.5 393.5q49.5 34.5 49.5 94.5q0 62 -44.5 92.5t-146.5 30.5h-163q-12 0 -12 -12v-240h180q87 0 136.5 34.5z" />
    </font>
</defs>
</svg>
